Верблюды / I cammelli (Джузеппе Бертолуччи / Giuseppe Bertolucci) [1988, Италия, комедия, DVB-AVC] DVO (Kino Polska)

Reply to topic
DL-List and Torrent activity
Size:  814 MB   |    Registered:  4 years 4 months   |    Completed:  1 time

Seeder not seen: 5 months 14 days

 
   
 
 
Author Message

star21 ®

Gender: Female

Longevity: 4 years 4 months

Posts: 551945

Location: Екатеринбург

Post 01-Dec-2015 13:58

[Quote]

Верблюды
I cammelli- Страна: Италия
Жанр: комедия
Год выпуска: 1988
Продолжительность: 01:38:08Перевод: Профессиональный (двухголосый закадровый) по заказу Kino Polska на производственно-технической базе Студии "Акцент"
Cубтитры: нет
Режиссер: Джузеппе Бертолуччи / Giuseppe Bertolucci
В ролях: Паоло Росси / Paolo Rossi (Ferruccio Ferri), Диего Абатантуоно / Diego Abatantuono (Camillo), Джулия Боски / Giulia Boschi (Anna), Сабина Гуццанти / Sabina Guzzanti (Miriam), Лаура Бетти / Laura Betti (Milena)
Описание: Страсть к наживе и зависть к постоянно выигрывающему в лотерее Ферруччио, заставляет менеджера Камилло организовать турне в Милан, где Ферруччио может выиграть 500 миллионов лир…
Доп. информация: Filmbox Arthouse IPTV
[imdb]http://www.imdb.com/title/tt0094831[/imdb]
Качество видео: DVB-AVC
Формат видео: MKV
Видео: AVC (H.264), 720x576@1024x576 (16:9), 25 fps, ~1008 kbps avg, 0.097 bit/pixel
Аудио: MPEG Audio 2, 2 ch, 48 kHz, ~128.00 kbps avg

MediaInfo

ОбщееУникальный идентификатор                 : 208684353997639746657808317683272397946 (0x9CFF2506669083E8B0227C647602347A)Полное имя                               : F:\My Torrents 3\[apreder]I_cammelli(1988)DVB.mkvФормат                                   : MatroskaВерсия формата                           : Version 2Размер файла                             : 814 МбайтПродолжительность                        : 1 ч. 38 м.Общий поток                              : 1159 Кбит/секДата кодирования                         : UTC 2015-06-21 12:49:11Программа кодирования                    : mkvmerge v8.0.0 ('Til The Day That I Die') 64bitБиблиотека кодирования                   : libebml v1.3.1 + libmatroska v1.4.2
ВидеоИдентификатор : 2Формат : AVCФормат/Информация : Advanced Video CodecПрофиль формата : Main@L3Параметр CABAC формата : ДаПараметр ReFrames формата : 3 кадраПараметр GOP формата : M=4, N=32Идентификатор кодека : V_MPEG4/ISO/AVCПродолжительность : 1 ч. 38 м.Битрейт : 1008 Кбит/секШирина : 720 пикселейВысота : 576 пикселейСоотношение сторон : 16:9Соотношение сторон в оригинале : 16:9Режим частоты кадров : ПостоянныйЧастота кадров : 25,000 кадров/секСтандарт вещания : ComponentЦветовое пространство : YUVСубдискретизация насыщенности : 4:2:0Битовая глубина : 8 битТип развёртки : ПрогрессивнаяПорядок развёртки : Верхнее поле первоеБит/(Пиксели*Кадры) : 0.097Размер потока : 708 Мбайт (87%)Default : ДаForced : Нетcolour_range : LimitedОсновные цвета : BT.601 PALХарактеристики трансфера : BT.470 System B, BT.470 System GКоэффициенты матрицы : BT.601
АудиоИдентификатор : 1Формат : MPEG AudioВерсия формата : Version 1Профиль формата : Layer 2Идентификатор кодека : A_MPEG/L2Идентификатор кодека/Подсказка : MP2Продолжительность : 1 ч. 38 м.Вид битрейта : ПостоянныйБитрейт : 128 Кбит/секКаналы : 2 каналаЧастота : 48,0 КГцМетод сжатия : С потерямиЗадержка видео : -20 мс.Размер потока : 89,9 Мбайт (11%)Язык : RussianDefault : ДаForced : Нет

Скриншот c названием фильма

Скриншоты


Резервные скриншоты


-[2'361]

To download the content you need:
1. Download and install torrent client [for Windows] or for mobile system
2. Click on [Download]
Attention.
If the test YOU are NOT a ROBOT - does not work, then You are using an outdated browser.
Install the current browser and click on [Download]

Do not work with Yandex browser. Uploading files to them is erroneous.
Security: torrent client is allowed by Kaspersky.

[en.asmlocator.ru].t4523.torrent 
Torrent: Registered [ 2015-12-01 13:55 ] · 22ADE6C71C5CD7342E4ED46AE231E5600F4F5434

Download .torrent

Download

16 KB

Status: checked
Completed: 1 times
Size: 814 MB
terms.php
[Profile] [PM]
Display posts:    
Reply to topic

Current time is: 03-Apr 03:26

All times are UTC ± 0



You cannot post new topics in this forum
You cannot reply to topics in this forum
You cannot edit your posts in this forum
You cannot delete your posts in this forum
You cannot vote in polls in this forum
You cannot attach files in this forum
You can download files in this forum
Верим фактам, а не вранью Путина! Факт, что Правительство ведёт Россию к истреблению.
Так как численность населения падает, даже не смотря на приток эмигрантов!
Русская нация вымирает и вырождается, смешиваясь с эмигрантами!
Факт, что военных и граждан предприятий заставляют голосовать за партию Единая Россия и Путина
ПОД СТРАХОМ УВОЛЬНЕНИЯ!
Нам не нужно Правительство, блокирующее личную жизнь, интернет, нарушающее сохранность данных.
Все эти действия финансируются за счёт народа!