Ребенок в ночи / Дитя ночи / Child In The Night (Майк Роуб / Mike Robe) [1990, США, Италия, Триллер, мистика, SATRip] AVO Андрей Дольский

Reply to topic
DL-List and Torrent activity
Size:  1.36 GB   |    Registered:  4 years 3 months   |    Completed:  0 times

Seeder not seen: Never

 
   
 
 
Author Message

star21 ®

Gender: Female

Longevity: 4 years 4 months

Posts: 551945

Location: Екатеринбург

Post 01-Dec-2015 13:58

[Quote]

Ребенок в ночи / Дитя ночи / Child In The Night
Страна: США, Италия
Жанр: Триллер, мистика
Год выпуска: 1990
Продолжительность: 1:27:21
Перевод: Авторский (одноголосый закадровый) Андрей Дольский
Cубтитры: нет
Режиссер: Майк Роуб / Mike Robe
В ролях: ДжоБет Уильямс, Том Скеррит, Элайджа Вуд, Сизон Хабли, Майк Пневски, Тим Чоут, Том Брэй, Джон Прокаччино, Дэррен МакГэвин, Стивен Годвин
Описание: Девятилетний Люк стал свидетелем убийства своего отца, хозяина фирмы по изготовлению катеров. Психологическая травма не дает ему возможность дать точные показания полиции. Попытки психиатров, используя гипноз, обнаружить истину разбиваются из-за страха ребенка, представляющего убийцу в облике персонажа сказки "Питер Пэн" капитана Крюка. Между психиатром и следователем завязывается роман, но их совместные усилия малоэффектны. И только после нескольких новых кровавых убийств мальчик вспоминает, что видел... хватит, молчим... Удачный триллер, лишенный навязчивой сенсационности. "Дитя ночи" - достаточно интересная картина с отличными актерскими работами Тома Скерритта, ДжоБет Уильямс и маленького Элайджи Вуда, который становится одним из самых известных актеров среди детей. Как всегда, убедительна ДжоБет Уильямс в роли психиатра.
Доп. информация: Дорога взята и синхронизирована из раздачи alenavova
Сэмпл: https://www.sendspace.com/file/veum05
Качество видео: SATRip
Формат видео: AVI
Видео: 640x480 (1.33:1), 23.976 fps, XviD build 50 ~2026kbps avg
Аудио: 48 kHz, AC3 Dolby Digital, 2/0 (L,R) ch, ~192 kbps

MediaInfo

Complete name Ребёнок в ночи 1990.avi
Format : AVI
Format/Info : Audio Video Interleave
File size : 1.36 GiB
Duration : 1h 27mn
Overall bit rate : 2 227 Kbps
Writing application : VirtualDubMod 1.5.10.2 (build 2540/release)
Writing library : VirtualDub build 35491/release
Video
ID : 0
Format : MPEG-4 Visual
Format settings, BVOP : 1
Format settings, QPel : No
Format settings, GMC : No warppoints
Format settings, Matrix : Default (H.263)
Muxing mode : Packed bitstream
Codec ID : DX50
Codec ID/Hint : DivX 5
Duration : 1h 27mn
Bit rate : 2 026 Kbps
Width : 640 pixels
Height : 480 pixels
Display aspect ratio : 4:3
Frame rate : 23.976 fps
Color space : YUV
Chroma subsampling : 4:2:0
Bit depth : 8 bits
Scan type : Progressive
Compression mode : Lossy
Bits/(Pixel*Frame) : 0.275
Stream size : 1.24 GiB (91%)
Writing library : DivX 6.0.0 (UTC 2005-06-15)
Audio
ID : 1
Format : AC-3
Format/Info : Audio Coding 3
Mode extension : CM (complete main)
Format settings, Endianness : Big
Codec ID : 2000
Duration : 1h 27mn
Bit rate mode : Constant
Bit rate : 192 Kbps
Channel(s) : 2 channels
Channel positions : Front: L R
Sampling rate : 48.0 KHz
Bit depth : 16 bits
Compression mode : Lossy
Stream size : 120 MiB (9%)
Alignment : Aligned on interleaves
Interleave, duration : 42 ms (1.00 video frame)
Interleave, preload duratio : 512 ms

Скриншоты

To download the content you need:
1. Download and install torrent client [for Windows] or for mobile system
2. Click on [Download]
Attention.
If the test YOU are NOT a ROBOT - does not work, then You are using an outdated browser.
Install the current browser and click on [Download]

Do not work with Yandex browser. Uploading files to them is erroneous.
Security: torrent client is allowed by Kaspersky.

[en.asmlocator.ru].t4522.torrent 
Torrent: Registered [ 2015-12-01 13:55 ] · 407EC20C584F433A26B44BAA9BFFA8FFAB49F9D6

Download .torrent

Download

14 KB

Status: checked
Completed: 0 times
Size: 1.36 GB
terms.php
[Profile] [PM]
Display posts:    
Reply to topic

Current time is: 31-Mar 19:10

All times are UTC ± 0



You cannot post new topics in this forum
You cannot reply to topics in this forum
You cannot edit your posts in this forum
You cannot delete your posts in this forum
You cannot vote in polls in this forum
You cannot attach files in this forum
You can download files in this forum
Верим фактам, а не вранью Путина! Факт, что Правительство ведёт Россию к истреблению.
Так как численность населения падает, даже не смотря на приток эмигрантов!
Русская нация вымирает и вырождается, смешиваясь с эмигрантами!
Факт, что военных и граждан предприятий заставляют голосовать за партию Единая Россия и Путина
ПОД СТРАХОМ УВОЛЬНЕНИЯ!
Нам не нужно Правительство, блокирующее личную жизнь, интернет, нарушающее сохранность данных.
Все эти действия финансируются за счёт народа!