Жизнь, полная обманов / Ложь / Lies (Джим Уит / Jim Wheat, Кен Уит / Ken Wheat) [1985, США, Триллер, драма VHSRip] AVO (Витя-говорун)

Reply to topic
DL-List and Torrent activity
Size:  1.04 GB   |    Registered:  4 years 3 months   |    Completed:  0 times

Seeder not seen: Never

 
   
 
 
Author Message

star21 ®

Gender: Female

Longevity: 4 years 4 months

Posts: 551945

Location: Екатеринбург

Post 01-Dec-2015 13:58

[Quote]

Жизнь, полная обманов / Ложь / Lies
Страна: США
Жанр: Триллер, драма
Год выпуска: 1985
Продолжительность: 01:33:09
Перевод: Авторский (одноголосый закадровый) Витя-говорун
Cубтитры: нет
Режиссер: Джим Уит / Jim Wheat, Кен Уит / Ken Wheat
В ролях: Энн Дьюзенберри, Гейл Стрикленд, Брюс Дэвисон, Клу Гулагер, Теренс Нокс, Берт Ремсен, Стэйси Кич ст., Дуглас Леонард, Пейшнс Кливлэнд, Джули Филипс
Описание: "Едва сводящая концы с концами актриса, принимает заманчивое предложение сыграть роль помещённой в психушку богатой наследницы. Она еще даже не подозревает, что в действительности будет использована там в качестве замены девушки, ставшей жертвой убийства." (перевод аннотации от Bernie с ЕХ)
Доп. информация: Звуковая дорожка ремастирована, синхронизирована и наложена ale_x2008 при помощи Adobe Audition, iZotope RX2, Sony Vegas и VirtualDubMod.
За оцифрованную с VHS дорожку благодарим - alenavova

Релиз
Сэмпл: https://yadi.sk/i/6Ne0o0KuhP5iz
Качество видео: VHSRip
Формат видео: AVI
Видео: 576x432 (1.33:1), 23.976 fps, XviD build 50 ~1395 kbps avg, 0.23 bit/pixel
Аудио: 48 kHz, AC3 Dolby Digital, 2/0 (L,R) ch, ~192 kbps

MediaInfo

Ложь - Lies (by ale_x2008].avi
Format : AVI
Format/Info : Audio Video Interleave
File size : 1.04 GiB
Duration : 1h 33mn
Overall bit rate : 1 597 Kbps
Movie name : Ложь - Lies (by ale_x2008]
Director : by ale_x2008
Writing application : VirtualDubMod 1.5.10.3 (build 2550/release)
Copyright : Edich2
Comment : RuTracker.org
Video
ID : 0
Format : MPEG-4 Visual
Format profile : Advanced Simple@L5
Format settings, BVOP : 2
Format settings, QPel : No
Format settings, GMC : No warppoints
Format settings, Matrix : Default (H.263)
Codec ID : XVID
Codec ID/Hint : XviD
Duration : 1h 33mn
Bit rate : 1 395 Kbps
Width : 576 pixels
Height : 432 pixels
Display aspect ratio : 4:3
Frame rate : 23.976 fps
Color space : YUV
Chroma subsampling : 4:2:0
Bit depth : 8 bits
Scan type : Progressive
Compression mode : Lossy
Bits/(Pixel*Frame) : 0.234
Stream size : 930 MiB (87%)
Writing library : XviD 1.2.1 (UTC 2008-12-04)
Audio
ID : 1
Format : AC-3
Format/Info : Audio Coding 3
Mode extension : CM (complete main)
Format settings, Endianness : Big
Codec ID : 2000
Duration : 1h 33mn
Bit rate mode : Constant
Bit rate : 192 Kbps
Channel(s) : 2 channels
Channel positions : Front: L R
Sampling rate : 48.0 KHz
Bit depth : 16 bits
Compression mode : Lossy
Stream size : 128 MiB (12%)
Alignment : Split accross interleaves
Interleave, duration : 42 ms (1.00 video frame)
Interleave, preload duration : 500 ms

Скриншоты


To download the content you need:
1. Download and install torrent client [for Windows] or for mobile system
2. Click on [Download]
Attention.
If the test YOU are NOT a ROBOT - does not work, then You are using an outdated browser.
Install the current browser and click on [Download]

Do not work with Yandex browser. Uploading files to them is erroneous.
Security: torrent client is allowed by Kaspersky.

[en.asmlocator.ru].t4521.torrent 
Torrent: Registered [ 2015-12-01 13:55 ] · 4AB8BF0BE845F60C771CC42BB3445821F3C226F8

Download .torrent

Download

11 KB

Status: checked
Completed: 0 times
Size: 1.04 GB
terms.php
[Profile] [PM]
Display posts:    
Reply to topic

Current time is: 31-Mar 19:41

All times are UTC ± 0



You cannot post new topics in this forum
You cannot reply to topics in this forum
You cannot edit your posts in this forum
You cannot delete your posts in this forum
You cannot vote in polls in this forum
You cannot attach files in this forum
You can download files in this forum
Верим фактам, а не вранью Путина! Факт, что Правительство ведёт Россию к истреблению.
Так как численность населения падает, даже не смотря на приток эмигрантов!
Русская нация вымирает и вырождается, смешиваясь с эмигрантами!
Факт, что военных и граждан предприятий заставляют голосовать за партию Единая Россия и Путина
ПОД СТРАХОМ УВОЛЬНЕНИЯ!
Нам не нужно Правительство, блокирующее личную жизнь, интернет, нарушающее сохранность данных.
Все эти действия финансируются за счёт народа!