Потомственное проклятие / От шепота до крика / The Offspring / From a Whisper to a Scream (Джефф Барр / Jeff Burr) [1987, США, ужасы, BDRip] VO (Котов)

Reply to topic
DL-List and Torrent activity
Size:  1.46 GB   |    Registered:  4 years 4 months   |    Completed:  1 time

Seeder not seen: 5 months 18 days

 
   
 
 
Author Message

star21 ®

Gender: Female

Longevity: 4 years 5 months

Posts: 551945

Location: Екатеринбург

Post 01-Dec-2015 13:58

[Quote]

Потомственное проклятие / От шепота до крика / The Offspring / From a Whisper to a Scream
Страна: США
Жанр: ужасы
Год выпуска: 1987
Продолжительность: 01:39:53
Перевод: Одноголосый закадровый - Вячеслав Котов
Cубтитры: нет

Режиссер: Джефф Барр / Jeff Burr
В ролях: Винсент Прайс, Клу Гулагер, Терри Кайзер, Гарри Цезар, Розалинд Кэш, Кэмерон Митчелл, Сьюзен Тиррел, Мартин Бесвик, Рон Брукс, Мириам Байрд-Нетери
Описание: В городке Олдфилд казнят некую Кэтрин Уайт, признанную виновной во множестве убийств. Тем же вечером к её дяде-библиотекарю Джулиану приезжает репортёрша, планируя поговорить по поводу племянницы. Не настроенный давать интервью Джулиан заявляет журналистке, что преступления в Олдфилде со смертью Кэтрин всё равно не закончатся, поскольку на самом городе издавна лежит проклятье. В подтверждение своих слов он рассказывает ей четыре истории о ненормальных жителях Олдфилда.
Первая — про одинокого старика, уставшего ухаживать за больной сестрой, и решившего найти себе новую подругу жизни. Вторая — про раненого бандита, спасённого на болотах подозрительным негром-старожилом. Героиня третьей байки влюбляется в карнавального поедателя стекла — звезду не совсем обычного цирка. Последняя история разворачивается на заре основания Олдфилда, во времена гражданской войны, когда несколько солдат-северян попадают в плен к странной секте озлобленных и вооружённых детей.

Качество видео:
Формат видео: AVI
Видео: 704x384 (1.83:1), 23.976 fps, XviD build 73 ~1884 kbps avg, 0.29 bit/pixel
Аудио: 48 kHz, AC3 Dolby Digital, 2/0 (L,R) ch, ~192 kbps

Сравнение

перевод тот же
http://screenshotcomparison.com/comparison/132053

MediaInfo

Общее
Полное имя : H:\From.a.Whisper.to.a.Scream.1987.bdrip_[1.46]_[teko].avi
Формат : AVI
Формат/Информация : Audio Video Interleave
Размер файла : 1,46 Гбайт
Продолжительность : 1 ч. 39 м.
Общий поток : 2086 Кбит/сек
Программа кодирования : VirtualDubMod 1.5.10.3 | www.virtualdub-fr.org || (build 2550/release)
Библиотека кодирования : VirtualDubMod build 2550/release
Видео
Идентификатор : 0
Формат : MPEG-4 Visual
Профиль формата : Advanced Simple@L5
Параметр BVOP формата : 1
Параметр QPel формата : Нет
Параметр GMC формата : Без точки перехода
Параметр матрицы формата : Выборочная
Идентификатор кодека : XVID
Идентификатор кодека/Подсказка : XviD
Продолжительность : 1 ч. 39 м.
Битрейт : 1885 Кбит/сек
Ширина : 704 пикселя
Высота : 384 пикселя
Соотношение сторон : 1,85:1
Частота кадров : 23,976 кадра/сек
Цветовое пространство : YUV
Субдискретизация насыщенности : 4:2:0
Битовая глубина : 8 бит
Тип развёртки : Прогрессивная
Метод сжатия : С потерями
Бит/(Пиксели*Кадры) : 0.291
Размер потока : 1,32 Гбайт (90%)
Библиотека кодирования : XviD 73
Аудио
Идентификатор : 1
Формат : AC-3
Формат/Информация : Audio Coding 3
Расширение режима : CM (complete main)
Параметр Endianness формата : Big
Идентификатор кодека : 2000
Продолжительность : 1 ч. 39 м.
Вид битрейта : Постоянный
Битрейт : 192 Кбит/сек
Каналы : 2 канала
Расположение каналов : Front: L R
Частота : 48,0 КГц
Битовая глубина : 16 бит
Метод сжатия : С потерями
Размер потока : 137 Мбайт (9%)
Выравнивание : Разделение по промежуткам
Продолжительность промежутка : 42 мс. (1,00 видеокадр)
Время предзагрузки промежутка : 500 мс.
Релиз группы:
-
-

To download the content you need:
1. Download and install torrent client [for Windows] or for mobile system
2. Click on [Download]
Attention.
If the test YOU are NOT a ROBOT - does not work, then You are using an outdated browser.
Install the current browser and click on [Download]

Do not work with Yandex browser. Uploading files to them is erroneous.
Security: torrent client is allowed by Kaspersky.

[en.asmlocator.ru].t4519.torrent 
Torrent: Registered [ 2015-12-01 13:55 ] · FDD9202B00689ED954A5DFC9CDD6B8F872623533

Download .torrent

Download

15 KB

Status: checked
Completed: 1 times
Size: 1.46 GB
terms.php
[Profile] [PM]
Display posts:    
Reply to topic

Current time is: 07-Apr 20:25

All times are UTC ± 0



You cannot post new topics in this forum
You cannot reply to topics in this forum
You cannot edit your posts in this forum
You cannot delete your posts in this forum
You cannot vote in polls in this forum
You cannot attach files in this forum
You can download files in this forum
Верим фактам, а не вранью Путина! Факт, что Правительство ведёт Россию к истреблению.
Так как численность населения падает, даже не смотря на приток эмигрантов!
Русская нация вымирает и вырождается, смешиваясь с эмигрантами!
Факт, что военных и граждан предприятий заставляют голосовать за партию Единая Россия и Путина
ПОД СТРАХОМ УВОЛЬНЕНИЯ!
Нам не нужно Правительство, блокирующее личную жизнь, интернет, нарушающее сохранность данных.
Все эти действия финансируются за счёт народа!