Золотой Ребёнок / The Golden Child (Майкл Ритчи / Michael Ritchie) [1986, США, боевик, приключения, комедия, фэнтези, WEB-DLRip] MVO (СТС) + MVO (ТВ-Центр) + DVO (Премьер Видео Фильм)

Reply to topic
DL-List and Torrent activity
Size:  1.44 GB   |    Registered:  4 years 7 months   |    Completed:  0 times

Seeder not seen: Never

 
   
 
 
Author Message

star21 ®

Gender: Female

Longevity: 4 years 8 months

Posts: 551945

Location: Екатеринбург

Post 01-Dec-2015 13:58

[Quote]

Золотой Ребёнок / The Golden Child
Год выпуска: 1986
Страна: США
Жанр: боевик, приключения, комедия, фэнтези
Продолжительность: 01:33:34
Перевод: Профессиональный (многоголосый закадровый) - СТС
Перевод 2: Профессиональный (многоголосый закадровый) - ТВ-Центр
Перевод 3: Профессиональный (двухголосый закадровый) - Премьер Видео Фильм
Cубтитры: нет
Режиссер: Майкл Ритчи / Michael Ritchie
В ролях: Эдди Мёрфи (Chandler Jarrell), Дж. Л. Рит (The Golden Child), Чарльз Дэнс (Sardo Numspa), Шарлотта Льюис (Kee Nang), Виктор Вонг (The Old Man), Рэндал "Текс" Кобб (Til), Джеймс Хонг (Doctor Hong), Шакти (Kala), Тау Лого (Yu), Тайгер Чун Ли (Khan)-Мировая премьера: 12 декабря 1986-Описание: Через каждую тысячу поколений на свет появляется идеальный ребенок, дитя, наделенное магической силой, чье предназначение — нести добро миру. Силы зла похитили ребенка… Теперь важнее всего на свете — найти его! Древний оракул Нечунг предсказал, что спасти Золотого ребенка сможет только избранный человек. Согласно предсказанию, это должен быть отважный человек с чистой душой. Под это определение подходит только один смертный — Чендлер из Лос-Анджелеса. Он должен выполнить свою миссию, отвоевать у сил зла Золотого ребенка и спасти мир…-Исходник видео: WEB-DL 1080p, найденный в сети.-Благодарности:
- собственная запись перевода с телеканала СТС в середине 2010-х годов через спутник.
- собственная запись перевода с телеканала ТВ-Центр в конце 90-х годов через видеомагнитофон и оцифровка с видеокассеты.
- собственная запись перевода с телеканала Россия в 2004 году через видеомагнитофон и оцифровка с видеокассеты.
- синхронизация переводов.-Данные переводы на трекере появляются впервые.
На русский язык фильм озвучен по заказу телеканала СТС.
Текст читают Александр Клюквин, Александр Груздев и Ольга Зубкова.
На русский язык фильм озвучен по заказу телеканала ТВ-Центр.
Текст читают Александр Клюквин, Виктор Петров и Людмила Ильина.
Перевод Премьер Видео Фильм.
Текст читают Вадим Андреев и Людмила Ильина.-Рейтинг

MPAA: PG-13 - Детям до 13 лет просмотр не желателен.-Качество видео: WEB-DLRip
Формат видео: AVI -> //SAMPLE//
Видео: XviD, 720x400 (16:9), 23.976 fps, 1603 kbps avg
Аудио:
1 - 48 khz, AC3 Dolby Digital, 2/0 (L,R) ch, ~192 kbps [СТС] SATRip
2 - 48 khz, AC3 Dolby Digital, 2/0 (L,R) ch, ~192 kbps [ТВ-Центр] VHSRip
3 - 48 khz, AC3 Dolby Digital, 2/0 (L,R) ch, ~192 kbps [Премьер Видео Фильм] VHSRip-Обновление релиза от 22.06.2015. Причины:
Заменён видеоряд с HDTVRip на WEB-DLRip;
Дорожки заново пере-синхронизированы под новый видеоряд.

Просьба перескачать торрент!

MediaInfo

General
Complete name : D:\Релизы на Трекере\Золотой Ребёнок (СТС + ТВ-Центр + Премьер).avi
Format : AVI
Format/Info : Audio Video Interleave
File size : 1.44 GiB
Duration : 1h 33mn
Overall bit rate : 2 198 Kbps
Writing application : VirtualDubMod 1.5.10.3 | www.virtualdub-fr.org || (build 2550/release)
Writing library : VirtualDubMod build 2550/release
Video
ID : 0
Format : MPEG-4 Visual
Format profile : Advanced Simple@L5
Format settings, BVOP : 1
Format settings, QPel : No
Format settings, GMC : No warppoints
Format settings, Matrix : Custom
Codec ID : XVID
Codec ID/Hint : XviD
Duration : 1h 33mn
Bit rate : 1 603 Kbps
Width : 720 pixels
Height : 400 pixels
Display aspect ratio : 16:9
Frame rate : 23.976 fps
Color space : YUV
Chroma subsampling : 4:2:0
Bit depth : 8 bits
Scan type : Progressive
Compression mode : Lossy
Bits/(Pixel*Frame) : 0.232
Stream size : 1.05 GiB (73%)
Writing library : XviD 1.2.1 (UTC 2008-12-04)
Audio #1
ID : 1
Format : AC-3
Format/Info : Audio Coding 3
Mode extension : CM (complete main)
Format settings, Endianness : Big
Codec ID : 2000
Duration : 1h 33mn
Bit rate mode : Constant
Bit rate : 192 Kbps
Channel(s) : 2 channels
Channel positions : Front: L R
Sampling rate : 48.0 KHz
Compression mode : Lossy
Stream size : 128 MiB (9%)
Alignment : Split accross interleaves
Interleave, duration : 42 ms (1.00 video frame)
Interleave, preload duratio : 500 ms
Audio #2
ID : 2
Format : AC-3
Format/Info : Audio Coding 3
Mode extension : CM (complete main)
Format settings, Endianness : Big
Codec ID : 2000
Duration : 1h 33mn
Bit rate mode : Constant
Bit rate : 192 Kbps
Channel(s) : 2 channels
Channel positions : Front: L R
Sampling rate : 48.0 KHz
Compression mode : Lossy
Stream size : 128 MiB (9%)
Alignment : Split accross interleaves
Interleave, duration : 42 ms (1.00 video frame)
Interleave, preload duratio : 500 ms
Audio #3
ID : 3
Format : AC-3
Format/Info : Audio Coding 3
Mode extension : CM (complete main)
Format settings, Endianness : Big
Codec ID : 2000
Duration : 1h 33mn
Bit rate mode : Constant
Bit rate : 192 Kbps
Channel(s) : 2 channels
Channel positions : Front: L R
Sampling rate : 48.0 KHz
Compression mode : Lossy
Stream size : 128 MiB (9%)
Alignment : Split accross interleaves
Interleave, duration : 42 ms (1.00 video frame)
Interleave, preload duratio : 500 ms

Скриншот c названием фильма

Скриншоты

To download the content you need:
1. Download and install torrent client [for Windows] or for mobile system
2. Click on [Download]
Attention.
If the test YOU are NOT a ROBOT - does not work, then You are using an outdated browser.
Install the current browser and click on [Download]

Do not work with Yandex browser. Uploading files to them is erroneous.
Security: torrent client is allowed by Kaspersky.

[en.asmlocator.ru].t4518.torrent 
Torrent: Registered [ 2015-12-01 13:55 ] · CA7EE4F8CBB5E34ED55E5297FC933F8C4B507A47

Download .torrent

Download

15 KB

Status: checked
Completed: 0 times
Size: 1.44 GB
terms.php
[Profile] [PM]
Display posts:    
Reply to topic

Current time is: 12-Jul 15:09

All times are UTC ± 0



You cannot post new topics in this forum
You cannot reply to topics in this forum
You cannot edit your posts in this forum
You cannot delete your posts in this forum
You cannot vote in polls in this forum
You cannot attach files in this forum
You can download files in this forum
Верим фактам, а не вранью Путина! Факт, что Правительство ведёт Россию к истреблению.
Так как численность населения падает, даже не смотря на приток эмигрантов!
Русская нация вымирает и вырождается, смешиваясь с эмигрантами!
Факт, что военных и граждан предприятий заставляют голосовать за партию Единая Россия и Путина
ПОД СТРАХОМ УВОЛЬНЕНИЯ!
Нам не нужно Правительство, блокирующее личную жизнь, интернет, нарушающее сохранность данных.
Все эти действия финансируются за счёт народа!