Коммандо / Commando (Марк Л. Лестер / Mark L. Lester) [1985, США, боевик, BDRip] MVO (Первый канал)

Reply to topic
DL-List and Torrent activity
Size:  1.37 GB   |    Registered:  4 years 3 months   |    Completed:  0 times

Seeder not seen: Never

 
   
 
 
Author Message

star21 ®

Gender: Female

Longevity: 4 years 4 months

Posts: 551945

Location: Екатеринбург

Post 01-Dec-2015 13:58

[Quote]

Коммандо
Commando

Страна: США
Жанр: боевик
Год выпуска: 1985
Продолжительность: 01:30:15-Перевод: Профессиональный (многоголосый закадровый)
Первый канал

Текст читали: Сергей Малишевский, Марина Дюжева, Рудольф Панков
Cубтитры: нет
Оригинальная аудиодорожка: нет-Режиссер: Марк Л. Лестер / Mark L. Lester
В ролях: Арнольд Шварценеггер, Рей Дон Чонг, Вернон Уэллс, Дэн Хедайя, Джеймс Олсон, Дэвид Патрик Келли, Билл Дьюк, Челси Филд, Билл Пэкстон, Брэнском Ричмонд-Описание: Группа террористов похищает юную дочь отставного командира десантного подразделения Джона Мэтрикса, чтобы при помощи шантажа заставить его убить президента одной латиноамериканской страны.
И Джон выходит на тропу войны...
-Доп. информация:
О переводе: Такой перевод есть на трекере и обозначен как ОРТ
Отличие:
Мой записан с цифрового эфира Первого канала, тот - с VHS
Запись и синхронизация:-Сэмплы для сравнения:
Мой сэмпл
ОРТ / 6-ти канальный-Качество видео: BDRip ()
Формат видео: AVI
Видео: XVID, 720x384, 1,85:1, 23,976 кадра/сек, 1978 Кбит/сек
Аудио: AC-3, 48,0 КГц, 192 Кбит/сек, 2 канала (многоголосый Первый канал)

MediaInfo

Общее
Полное имя : Коммандо.1985.BDRip.1канал.avi
Формат : AVI
Формат/Информация : Audio Video Interleave
Размер файла : 1,37 Гбайт
Продолжительность : 1 ч. 30 м.
Общий поток : 2180 Кбит/сек
Дата записи : 22.06.2015
Программа кодирования : VirtualDubModRus 1.5.10.2 (build 2542/release)
Библиотека кодирования : VirtualDubMod build 2542/release
Авторское право : mister55555
Примечание : для rutracker.org
Видео
Идентификатор : 0
Формат : MPEG-4 Visual
Профиль формата : Advanced Simple@L5
Параметр BVOP формата : 2
Параметр QPel формата : Нет
Параметр GMC формата : Без точки перехода
Параметр матрицы формата : Выборочная
Идентификатор кодека : XVID
Идентификатор кодека/Подсказка : XviD
Продолжительность : 1 ч. 30 м.
Битрейт : 1978 Кбит/сек
Ширина : 720 пикселей
Высота : 384 пикселя
Соотношение сторон : 1,85:1
Частота кадров : 23,976 кадра/сек
Цветовое пространство : YUV
Субдискретизация насыщенности : 4:2:0
Битовая глубина : 8 бит
Тип развёртки : Прогрессивная
Метод сжатия : С потерями
Бит/(Пиксели*Кадры) : 0.298
Размер потока : 1,25 Гбайт (91%)
Библиотека кодирования : XviD 73
Аудио
Идентификатор : 1
Формат : AC-3
Формат/Информация : Audio Coding 3
Расширение режима : CM (complete main)
Параметр Endianness формата : Big
Идентификатор кодека : 2000
Продолжительность : 1 ч. 30 м.
Вид битрейта : Постоянный
Битрейт : 192 Кбит/сек
Каналы : 2 канала
Расположение каналов : Front: L R
Частота : 48,0 КГц
Метод сжатия : С потерями
Размер потока : 124 Мбайт (9%)
Выравнивание : Разделение по промежуткам
Продолжительность промежутка : 42 мс. (1,00 видеокадр)
Время предзагрузки промежутка : 500 мс.
Заголовок : многоголосый Первый канал

Скриншоты

To download the content you need:
1. Download and install torrent client [for Windows] or for mobile system
2. Click on [Download]
Attention.
If the test YOU are NOT a ROBOT - does not work, then You are using an outdated browser.
Install the current browser and click on [Download]

Do not work with Yandex browser. Uploading files to them is erroneous.
Security: torrent client is allowed by Kaspersky.

[en.asmlocator.ru].t4514.torrent 
Torrent: Registered [ 2015-12-01 13:55 ] · 2458515A3B0575E82DF8D1AE2B287874CBF7DF61

Download .torrent

Download

14 KB

Status: checked
Completed: 0 times
Size: 1.37 GB
terms.php
[Profile] [PM]
Display posts:    
Reply to topic

Current time is: 31-Mar 18:26

All times are UTC ± 0



You cannot post new topics in this forum
You cannot reply to topics in this forum
You cannot edit your posts in this forum
You cannot delete your posts in this forum
You cannot vote in polls in this forum
You cannot attach files in this forum
You can download files in this forum
Верим фактам, а не вранью Путина! Факт, что Правительство ведёт Россию к истреблению.
Так как численность населения падает, даже не смотря на приток эмигрантов!
Русская нация вымирает и вырождается, смешиваясь с эмигрантами!
Факт, что военных и граждан предприятий заставляют голосовать за партию Единая Россия и Путина
ПОД СТРАХОМ УВОЛЬНЕНИЯ!
Нам не нужно Правительство, блокирующее личную жизнь, интернет, нарушающее сохранность данных.
Все эти действия финансируются за счёт народа!