Бездна / The Abyss (Джеймс Кэмерон / James Cameron) [1989, США, фантастика, триллер, драма, приключения, HDTVRip] [Театральная Версия / Theatrical Cut] DVO (Премьер Видео Фильм)

Reply to topic
DL-List and Torrent activity
Size:  1.46 GB   |    Registered:  4 years 3 months   |    Completed:  0 times

Seeder not seen: Never

 
   
 
 
Author Message

star21 ®

Gender: Female

Longevity: 4 years 4 months

Posts: 551945

Location: Екатеринбург

Post 01-Dec-2015 13:58

[Quote]

Бездна / The Abyss / Театральная Версия / Theatrical Cut
Год выпуска: 1989
Страна: США
Жанр: фантастика, триллер, драма, приключения
Продолжительность: 02:20:16
Перевод: Профессиональный (двухголосый закадровый) - Премьер Видео Фильм
Cубтитры: нет
Режиссер: Джеймс Кэмерон / James Cameron
В ролях: Эд Харрис (Virgil «Bud» Brigman), Мэри Элизабет Мастрантонио (Lindsey Brigman), Майкл Бин (Lt. Hiram Coffey), Лео Бёрместер (Catfish De Vries), Тодд Графф (Alan «Hippy» Carnes), Джон Бедфорд Ллойд (Jammer Willis), Дж. К. Куин («Sonny» Dawson), Кимберли Скотт (Lisa «One Night» Standing), Капитан Кидд Брюер мл. (Lew Finler), Джордж Роберт Клек (Wilhite)-Мировая премьера: 9 августа 1989-Описание: Атомная подводная лодка «Монтана» ВМФ США с ядерным оружием на борту терпит крушение на огромной глубине. Министерство флота просит помощи у специалистов подводной исследовательской станции, работающей неподалеку от места аварии субмарины. При поддержке четырех военных разведчиков исследователи должны выяснить возможную причину трагедии и нейтрализовать ядерные боеголовки. Но в океанской бездне им предстоит столкнуться с неведомым…-Благодарности:
- .
- оцифровка со своей собственной видеокассеты перевода от лицензионной видео-компании Премьер Видео Фильм.
- синхронизация перевода.-Данный перевод на трекере появляется впервые.
Мужские роли озвучивает Владимир Вихров.-Рейтинг

MPAA: PG-13 - Детям до 13 лет просмотр не желателен.-Качество видео: HDTVRip
Формат видео: AVI -> //SAMPLE//
Видео: XviD, 720x304 (2,35:1), 23.976 fps, 1289 kbps avg
Аудио:
1 - 48 khz, AC3 Dolby Digital, 2/0 (L,R) ch, ~192 kbps [Премьер Видео Фильм] VHSRip

MediaInfo

General
Complete name : D:\Релизы на Трекере\Бездна [Театральная Версия] (Премьер Видео Фильм).avi
Format : AVI
Format/Info : Audio Video Interleave
File size : 1.46 GiB
Duration : 2h 20mn
Overall bit rate : 1 490 Kbps
Writing application : VirtualDubMod 1.5.10.3 | www.virtualdub-fr.org || (build 2550/release)
Writing library : VirtualDubMod build 2550/release
Video
ID : 0
Format : MPEG-4 Visual
Format profile : Advanced Simple@L5
Format settings, BVOP : 1
Format settings, QPel : No
Format settings, GMC : No warppoints
Format settings, Matrix : Custom
Codec ID : XVID
Codec ID/Hint : XviD
Duration : 2h 20mn
Bit rate : 1 289 Kbps
Width : 720 pixels
Height : 304 pixels
Display aspect ratio : 2.35:1
Frame rate : 23.976 fps
Color space : YUV
Chroma subsampling : 4:2:0
Bit depth : 8 bits
Scan type : Progressive
Compression mode : Lossy
Bits/(Pixel*Frame) : 0.246
Stream size : 1.26 GiB (86%)
Writing library : XviD 73
Audio
ID : 1
Format : AC-3
Format/Info : Audio Coding 3
Mode extension : CM (complete main)
Format settings, Endianness : Big
Codec ID : 2000
Duration : 2h 20mn
Bit rate mode : Constant
Bit rate : 192 Kbps
Channel(s) : 2 channels
Channel positions : Front: L R
Sampling rate : 48.0 KHz
Compression mode : Lossy
Stream size : 193 MiB (13%)
Alignment : Split accross interleaves
Interleave, duration : 42 ms (1.00 video frame)
Interleave, preload duratio : 500 ms

Скриншот c названием фильма

Скриншоты

To download the content you need:
1. Download and install torrent client [for Windows] or for mobile system
2. Click on [Download]
Attention.
If the test YOU are NOT a ROBOT - does not work, then You are using an outdated browser.
Install the current browser and click on [Download]

Do not work with Yandex browser. Uploading files to them is erroneous.
Security: torrent client is allowed by Kaspersky.

[en.asmlocator.ru].t4513.torrent 
Torrent: Registered [ 2015-12-01 13:55 ] · 49EFD58B1444C4E79561F0F35635FC78AC3AAD32

Download .torrent

Download

15 KB

Status: checked
Completed: 0 times
Size: 1.46 GB
terms.php
[Profile] [PM]
Display posts:    
Reply to topic

Current time is: 31-Mar 19:04

All times are UTC ± 0



You cannot post new topics in this forum
You cannot reply to topics in this forum
You cannot edit your posts in this forum
You cannot delete your posts in this forum
You cannot vote in polls in this forum
You cannot attach files in this forum
You can download files in this forum
Верим фактам, а не вранью Путина! Факт, что Правительство ведёт Россию к истреблению.
Так как численность населения падает, даже не смотря на приток эмигрантов!
Русская нация вымирает и вырождается, смешиваясь с эмигрантами!
Факт, что военных и граждан предприятий заставляют голосовать за партию Единая Россия и Путина
ПОД СТРАХОМ УВОЛЬНЕНИЯ!
Нам не нужно Правительство, блокирующее личную жизнь, интернет, нарушающее сохранность данных.
Все эти действия финансируются за счёт народа!