Волки / Wolfen (Майкл Уодли / Michael Wadleigh) [1981, США, ужасы, триллер, BDRip] MVO (Премьер-Видео) + AVO (Визгунов) + Original Eng

Reply to topic
DL-List and Torrent activity
Size:  2.19 GB   |    Registered:  4 years 3 months   |    Completed:  0 times

Seeder not seen: Never

 
   
 
 
Author Message

star21 ®

Gender: Female

Longevity: 4 years 4 months

Posts: 551945

Location: Екатеринбург

Post 01-Dec-2015 13:58

[Quote]

Волки / Wolfen- Год выпуска: 1981
Страна: США
Жанр: ужасы, триллер
Продолжительность: 01:54:06
Перевод: Профессиональный (многоголосый, закадровый) Премьер Видео
+ Авторский одноголосый С.Визгунов
+ Оригинальная звуковая дорожка
Субтитры: нет-Режиссер: Майкл Уодли / Michael Wadleigh
В ролях: Альберт Финни, Дайан Венора, Эдвард Джеймс Олмос, Грегори Хайнс, Том Нунен, Дик О’Нил, Дел Берти, Питер Майкл Гец, Сэм Грэй, Ральф Белл
О фильме: Как вы думаете, что общего может быть между богатым торговцем недвижимостью, его женой-наркоманкой и грязным пьяницей из трущоб?
Лишь одно жуткое обстоятельство: все они жертвы неслыханных по жестокости преступлений, потрясших Нью-Йорк!
Ведущий расследование ветеран «убойного отдела» скоро с ужасом начинает понимать, что зловещие убийства совершаются древними сверхъестественными существами…-Релиз:
Автор: sociolog_melvas
Качество: BDRip (источник: / BD-Remux / 1080p)
Формат: AVI
Видео: 720x304 (2.37:1), 23,976 fps, XviD build 65 ~1903 kbps avg, 0.36 bit/pixel
Аудио #01: 48 kHz, AC3 Dolby Digital, 2/0 (L,R), ~192.00 kbps avg dvo
Аудио #02: 48 kHz, AC3 Dolby Digital, 2/0 (L,R), ~192.00 kbps avg avo
Аудио #03: 48 kHz, AC3 Dolby Digital, 3/2 (L,C,R,l,r) + LFE ch, ~448.00 kbps avg eng
Размер: 2238.06 Mb (1/2 DVD-R)
Скачать: Семпл-

Кадры из фильма


-

Mi

Формат : AVI
Формат/Информация : Audio Video Interleave
Профиль формата : OpenDML
Размер файла : 2,19 Гбайт
Продолжительность : 1 ч. 54 м.
Общий поток : 2742 Кбит/сек
Название фильма : Волки / Wolfen (1981) BDRip
Режиссёр : sociolog_melvas
Жанр : ужасы, триллер
Программа кодирования : VirtualDubMod 1.5.10.2 (build 2540/release)
Примечание : 23.06.2015
Видео
Идентификатор : 0
Формат : MPEG-4 Visual
Профиль формата : Advanced Simple@L5
Параметр BVOP формата : 1
Параметр QPel формата : Нет
Параметр GMC формата : Без точки перехода
Параметр матрицы формата : Выборочная
Идентификатор кодека : XVID
Идентификатор кодека/Подсказка : XviD
Продолжительность : 1 ч. 54 м.
Битрейт : 1886 Кбит/сек
Ширина : 720 пикселей
Высота : 304 пикселя
Соотношение сторон : 2,35:1
Частота кадров : 23,976 кадра/сек
Цветовое пространство : YUV
Субдискретизация насыщенности : 4:2:0
Битовая глубина : 8 бит
Тип развёртки : Прогрессивная
Метод сжатия : С потерями
Бит/(Пиксели*Кадры) : 0.359
Размер потока : 1,50 Гбайт (69%)
Библиотека кодирования : XviD 65
Аудио #1
Идентификатор : 1
Формат : AC-3
Формат/Информация : Audio Coding 3
Расширение режима : CM (complete main)
Параметр Endianness формата : Big
Идентификатор кодека : 2000
Продолжительность : 1 ч. 54 м.
Вид битрейта : Постоянный
Битрейт : 192 Кбит/сек
Каналы : 2 канала
Расположение каналов : Front: L R
Частота : 48,0 КГц
Битовая глубина : 16 бит
Метод сжатия : С потерями
Размер потока : 157 Мбайт (7%)
Выравнивание : Разделение по промежуткам
Продолжительность промежутка : 42 мс. (1,00 видеокадр)
Время предзагрузки промежутка : 500 мс.
Аудио #2
Идентификатор : 2
Формат : AC-3
Формат/Информация : Audio Coding 3
Расширение режима : CM (complete main)
Параметр Endianness формата : Big
Идентификатор кодека : 2000
Продолжительность : 1 ч. 54 м.
Вид битрейта : Постоянный
Битрейт : 192 Кбит/сек
Каналы : 2 канала
Расположение каналов : Front: L R
Частота : 48,0 КГц
Битовая глубина : 16 бит
Метод сжатия : С потерями
Размер потока : 157 Мбайт (7%)
Выравнивание : Разделение по промежуткам
Продолжительность промежутка : 42 мс. (1,00 видеокадр)
Время предзагрузки промежутка : 500 мс.
Аудио #3
Идентификатор : 3
Формат : AC-3
Формат/Информация : Audio Coding 3
Расширение режима : CM (complete main)
Параметр Endianness формата : Big
Идентификатор кодека : 2000
Продолжительность : 1 ч. 54 м.
Вид битрейта : Постоянный
Битрейт : 448 Кбит/сек
Каналы : 6 каналов
Расположение каналов : Front: L C R, Side: L R, LFE
Частота : 48,0 КГц
Битовая глубина : 16 бит
Метод сжатия : С потерями
Размер потока : 366 Мбайт (16%)
Выравнивание : Разделение по промежуткам
Продолжительность промежутка : 42 мс. (1,00 видеокадр)
Время предзагрузки промежутка : 500 мс.
-

To download the content you need:
1. Download and install torrent client [for Windows] or for mobile system
2. Click on [Download]
Attention.
If the test YOU are NOT a ROBOT - does not work, then You are using an outdated browser.
Install the current browser and click on [Download]

Do not work with Yandex browser. Uploading files to them is erroneous.
Security: torrent client is allowed by Kaspersky.

[en.asmlocator.ru].t4508.torrent 
Torrent: Registered [ 2015-12-01 13:55 ] · A018EFDDC3FCBC169E830ED993896A6D41C3C90D

Download .torrent

Download

12 KB

Status: checked
Completed: 0 times
Size: 2.19 GB
terms.php
[Profile] [PM]
Display posts:    
Reply to topic

Current time is: 31-Mar 18:48

All times are UTC ± 0



You cannot post new topics in this forum
You cannot reply to topics in this forum
You cannot edit your posts in this forum
You cannot delete your posts in this forum
You cannot vote in polls in this forum
You cannot attach files in this forum
You can download files in this forum
Верим фактам, а не вранью Путина! Факт, что Правительство ведёт Россию к истреблению.
Так как численность населения падает, даже не смотря на приток эмигрантов!
Русская нация вымирает и вырождается, смешиваясь с эмигрантами!
Факт, что военных и граждан предприятий заставляют голосовать за партию Единая Россия и Путина
ПОД СТРАХОМ УВОЛЬНЕНИЯ!
Нам не нужно Правительство, блокирующее личную жизнь, интернет, нарушающее сохранность данных.
Все эти действия финансируются за счёт народа!