Акт возмездия / Act of Vengeance (Caveman) [1986, США, драма, криминал, экранизация, SATRip] Dub (Мосфильм) + DVO (НТВ) + AVO (Андрей Гаврилов)

Reply to topic
DL-List and Torrent activity
Size:  1.44 GB   |    Registered:  4 years 4 months   |    Completed:  0 times

Seeder not seen: Never

 
   
 
 
Author Message

star21 ®

Gender: Female

Longevity: 4 years 4 months

Posts: 551945

Location: Екатеринбург

Post 01-Dec-2015 13:58

[Quote]

Акт возмездия / Акт мести / Act of Vengeance Страна: США
Жанр: драма, криминал, экранизация
Год выпуска: 1986
Продолжительность: 01:27:41
Перевод: Профессиональный (дублированный) к/с "Мосфильм" (1988)
Роли дублировали: Рудольф Панков, Лариса Данилина, Николай Грабе, Валерий Малышев, Леонид Белозорович, Тамара Семина
Перевод 2: Профессиональный (двухголосый закадровый) НТВ
Текст читали: Ольга Кузнецова, Владимир Вихров
Перевод 3: Авторский (одноголосый закадровый) Андрей Гаврилов
Cубтитры: нет
Оригинальная аудиодорожка: нет
Режиссер: Джон МакКензи / John Mackenzie
В ролях: Чарльз Бронсон, Эллен Бёрстин, Уилфорд Бримли, Эллен Баркин, Киану Ривз, Пег Мюррэй, Хойт Экстон, Роберт Шенккан, Мори Чайкин, Каролайн Кава, Уильям Ньюман, Алан Норт, Кристофер Бенсон, Рэйнор Шайне, Том Харви, Альф Хамфриз, Джозеф Келл, Кен Пог, Чак Шамата, Джеймс Берден, Питер Колви, Ферне Дауни, Эрин Флэннери, Энджи Гей, Пэм Хайатт
Описание: Экранизация одноименной книги Тревора Армбристера. Фильм основан на реальных событиях. После аварии на одной из шахт с 80-ю смертями председатель профсоюза Объединённые горнорабочие Америки / The United Mine Workers of America Уильям Энтони ("Тони") Бойл (Уилфорд Бримл) заявляет, что горная компания не виновата в случившемся. С этим решительно не согласен один из региональных шахтёрских лидеров - Джозеф ("Джок") Яблонски (Чарльз Бронсон). Он начинает борьбу за права шахтёров, бросив вызов Бойлу, и, несмотря на угрозы, выдвигает собственную кандидатуру на пост председателя профсоюза на следующий срок. Противостояние заканчивается кровавой развязкой... Весьма драматичный и достаточно тяжелый сюжет, демонстрирующий несправедливость, грязь и беспорядок, происходивший в борьбе за власть.
Доп. информация: Cобственный рип. За НТВ дорогу благодарю Lexa1988-L1, за Гаврилова спасибо budulai-8, дубляж из сети.
Слоган фильма:
"His was an act of defiance. Theirs was an act of vengeance" / "С его стороны это был акт неповиновения. С их стороны это был акт возмездия"
Сэмпл: http://multi-up.com/1055314
Качество видео: SATRip
(формат ts)
Формат видео: AVI
Видео: XviD, 688x512 (4:3), 25.00 fps, ~ 1760 kbps avg
Аудио: Russian AC3 Dolby Digital, 48 kHz, 2/0 (L,R) ch, 192.00 kbps avg (Советский дубляж)
Аудио 2: Russian AC3 Dolby Digital, 48 kHz, 2/0 (L,R) ch, 192.00 kbps avg (НТВ)
Аудио 3: Russian AC3 Dolby Digital, 48 kHz, 2/0 (L,R) ch, 192.00 kbps avg (Андрей Гаврилов)

MediaInfo

General
Complete name : E:\Act of Vengeance_1986\Act of Vengeance_1986.SATrRp.Dubl.DVO NTV.Gavrilov.avi
Format : AVI
Format/Info : Audio Video Interleave
File size : 1.44 GiB
Duration : 1h 27mn
Overall bit rate : 2 356 Kbps
Writing application : VirtualDubModRus 1.5.10.2 (build 2542/release)
Writing library : VirtualDubMod build 2542/release
Video
ID : 0
Format : MPEG-4 Visual
Format profile : Advanced Simple@L5
Format settings, BVOP : 1
Format settings, QPel : No
Format settings, GMC : No warppoints
Format settings, Matrix : Default (MPEG)
Codec ID : XVID
Codec ID/Hint : XviD
Duration : 1h 27mn
Bit rate : 1 761 Kbps
Width : 688 pixels
Height : 512 pixels
Display aspect ratio : 4:3
Frame rate : 25.000 fps
Color space : YUV
Chroma subsampling : 4:2:0
Bit depth : 8 bits
Scan type : Progressive
Compression mode : Lossy
Bits/(Pixel*Frame) : 0.200
Stream size : 1.08 GiB (75%)
Writing library : XviD 73
Audio #1
ID : 1
Format : AC-3
Format/Info : Audio Coding 3
Mode extension : CM (complete main)
Format settings, Endianness : Big
Codec ID : 2000
Duration : 1h 27mn
Bit rate mode : Constant
Bit rate : 192 Kbps
Channel(s) : 2 channels
Channel positions : Front: L R
Sampling rate : 48.0 KHz
Compression mode : Lossy
Stream size : 120 MiB (8%)
Alignment : Split accross interleaves
Interleave, duration : 40 ms (1.00 video frame)
Interleave, preload duratio : 500 ms
Audio #2
ID : 2
Format : AC-3
Format/Info : Audio Coding 3
Mode extension : CM (complete main)
Format settings, Endianness : Big
Codec ID : 2000
Duration : 1h 27mn
Bit rate mode : Constant
Bit rate : 192 Kbps
Channel(s) : 2 channels
Channel positions : Front: L R
Sampling rate : 48.0 KHz
Compression mode : Lossy
Stream size : 120 MiB (8%)
Alignment : Split accross interleaves
Interleave, duration : 40 ms (1.00 video frame)
Interleave, preload duratio : 500 ms
Audio #3
ID : 3
Format : AC-3
Format/Info : Audio Coding 3
Mode extension : CM (complete main)
Format settings, Endianness : Big
Codec ID : 2000
Duration : 1h 27mn
Bit rate mode : Constant
Bit rate : 192 Kbps
Channel(s) : 2 channels
Channel positions : Front: L R
Sampling rate : 48.0 KHz
Compression mode : Lossy
Stream size : 120 MiB (8%)
Alignment : Split accross interleaves
Interleave, duration : 40 ms (1.00 video frame)
Interleave, preload duratio : 500 ms

Скриншоты

To download the content you need:
1. Download and install torrent client [for Windows] or for mobile system
2. Click on [Download]
Attention.
If the test YOU are NOT a ROBOT - does not work, then You are using an outdated browser.
Install the current browser and click on [Download]

Do not work with Yandex browser. Uploading files to them is erroneous.
Security: torrent client is allowed by Kaspersky.

[en.asmlocator.ru].t4506.torrent 
Torrent: Registered [ 2015-12-01 13:55 ] · D0A10D41937834C9E5EA79E3300E46DD8E3B26F4

Download .torrent

Download

15 KB

Status: checked
Completed: 0 times
Size: 1.44 GB
terms.php
[Profile] [PM]
Display posts:    
Reply to topic

Current time is: 04-Apr 15:15

All times are UTC ± 0



You cannot post new topics in this forum
You cannot reply to topics in this forum
You cannot edit your posts in this forum
You cannot delete your posts in this forum
You cannot vote in polls in this forum
You cannot attach files in this forum
You can download files in this forum
Верим фактам, а не вранью Путина! Факт, что Правительство ведёт Россию к истреблению.
Так как численность населения падает, даже не смотря на приток эмигрантов!
Русская нация вымирает и вырождается, смешиваясь с эмигрантами!
Факт, что военных и граждан предприятий заставляют голосовать за партию Единая Россия и Путина
ПОД СТРАХОМ УВОЛЬНЕНИЯ!
Нам не нужно Правительство, блокирующее личную жизнь, интернет, нарушающее сохранность данных.
Все эти действия финансируются за счёт народа!