Убийца с электродрелью / The Driller Killer (Абель Феррара / Abel Ferrara) [1979, США, триллер, ужасы, DVB-AVC] DVO (Kino Polska)

Reply to topic
DL-List and Torrent activity
Size:  558 MB   |    Registered:  4 years 7 months   |    Completed:  0 times

Seeder not seen: 2 years 11 months

 
   
 
 
Author Message

star21 ®

Gender: Female

Longevity: 4 years 8 months

Posts: 551945

Location: Екатеринбург

Post 01-Dec-2015 13:58

[Quote]

Убийца с электродрелью
The Driller Killer- Страна: США
Жанр: триллер, ужасы
Год выпуска: 1979
Продолжительность: 01:35:52Перевод: Профессиональный (двухголосый закадровый) по заказу Kino Polska на производственно-технической базе Студии "Акцент"
Cубтитры: нет
Режиссер: Абель Феррара / Abel Ferrara
В ролях: Абель Феррара / Abel Ferrara (Reno Miller), Кэролин Марс / Carolyn Marz (Carol Slaughter), Бэйби Дэй / Baybi Day (Pamela)
Описание: Рено Миллер – талантливый художник, живёт с двумя девушками-бисексуалками, которые позируют ему для его работ, с ними он проводит всё свободное время – преимущественно в ночных клубах, где балуется наркотой. Свои творения он продаёт через собственного агента и за счёт этого и живёт. А так, деньги для него – ничто. Но вот постепенно у него начинают скапливаться неоплаченные счета, а финансовых средств на то, чтобы всё это оплатить, нет. Хорошо хоть, он скоро закончит новую картину, живописующую жизнь какого-то быка. Но пока она не готова, его начинают посещать видения и галлюцинации, связанные с его нелёгкой, отягощённой проблемами жизнью. Рено постепенно начинает сходить с ума, и его приступы ярости заканчиваются убийствами, которые он совершает при помощи электродрели. Благо, что современная техника дошла до переносных аккумуляторов, к которым можно присобачить всякую полезную вещь, такую как электродрель, например…
Доп. информация: Filmbox Arthouse IPTV
[imdb]http://www.imdb.com/title/tt0079082[/imdb]
Качество видео: DVB-AVC
Формат видео: MKV
Видео: AVC (H.264), 720x576@1024x576 (16:9), 25 fps, ~670 kbps avg, 0.065 bit/pixel
Аудио: MPEG Audio 2, 2 ch, 48 kHz, ~128.00 kbps avg

MediaInfo

ОбщееУникальный идентификатор                 : 187965693325424780499104396293555539829 (0x8D68E02FCB876A5986CC1A5840AACF75)Полное имя                               : F:\My Torrents 3\[apreder]The_Driller_Killer(1979)DVB.mkvФормат                                   : MatroskaВерсия формата                           : Version 2Размер файла                             : 558 МбайтПродолжительность                        : 1 ч. 35 м.Общий поток                              : 814 Кбит/секДата кодирования                         : UTC 2015-06-24 15:53:22Программа кодирования                    : mkvmerge v8.0.0 ('Til The Day That I Die') 64bitБиблиотека кодирования                   : libebml v1.3.1 + libmatroska v1.4.2
ВидеоИдентификатор : 2Формат : AVCФормат/Информация : Advanced Video CodecПрофиль формата : Main@L3Параметр CABAC формата : ДаПараметр ReFrames формата : 3 кадраИдентификатор кодека : V_MPEG4/ISO/AVCПродолжительность : 1 ч. 35 м.Битрейт : 670 Кбит/секШирина : 720 пикселейВысота : 576 пикселейСоотношение сторон : 16:9Соотношение сторон в оригинале : 16:9Режим частоты кадров : ПостоянныйЧастота кадров : 25,000 кадров/секСтандарт вещания : ComponentЦветовое пространство : YUVСубдискретизация насыщенности : 4:2:0Битовая глубина : 8 битТип развёртки : ЧересстрочнаяПорядок развёртки : Верхнее поле первоеБит/(Пиксели*Кадры) : 0.065Размер потока : 459 Мбайт (82%)Default : ДаForced : Нетcolour_range : LimitedОсновные цвета : BT.601 PALХарактеристики трансфера : BT.470 System B, BT.470 System GКоэффициенты матрицы : BT.601
АудиоИдентификатор : 1Формат : MPEG AudioВерсия формата : Version 1Профиль формата : Layer 2Идентификатор кодека : A_MPEG/L2Идентификатор кодека/Подсказка : MP2Продолжительность : 1 ч. 35 м.Вид битрейта : ПостоянныйБитрейт : 128 Кбит/секКаналы : 2 каналаЧастота : 48,0 КГцМетод сжатия : С потерямиЗадержка видео : -16 мс.Размер потока : 87,8 Мбайт (16%)Язык : RussianDefault : ДаForced : Нет

Скриншот c названием фильма

Скриншоты


Резервные скриншоты


-[2'378]

To download the content you need:
1. Download and install torrent client [for Windows] or for mobile system
2. Click on [Download]
Attention.
If the test YOU are NOT a ROBOT - does not work, then You are using an outdated browser.
Install the current browser and click on [Download]

Do not work with Yandex browser. Uploading files to them is erroneous.
Security: torrent client is allowed by Kaspersky.

[en.asmlocator.ru].t4504.torrent 
Torrent: Registered [ 2015-12-01 13:55 ] · E6F10C271FB8EDA8C0935226731DD1C50AC2641E

Download .torrent

Download

11 KB

Status: checked
Completed: 0 times
Size: 558 MB
terms.php
[Profile] [PM]
Display posts:    
Reply to topic

Current time is: 11-Jul 19:54

All times are UTC ± 0



You cannot post new topics in this forum
You cannot reply to topics in this forum
You cannot edit your posts in this forum
You cannot delete your posts in this forum
You cannot vote in polls in this forum
You cannot attach files in this forum
You can download files in this forum
Верим фактам, а не вранью Путина! Факт, что Правительство ведёт Россию к истреблению.
Так как численность населения падает, даже не смотря на приток эмигрантов!
Русская нация вымирает и вырождается, смешиваясь с эмигрантами!
Факт, что военных и граждан предприятий заставляют голосовать за партию Единая Россия и Путина
ПОД СТРАХОМ УВОЛЬНЕНИЯ!
Нам не нужно Правительство, блокирующее личную жизнь, интернет, нарушающее сохранность данных.
Все эти действия финансируются за счёт народа!