Агенты Сокол и Снеговик / The Falcon and the Snowman (Джон Шлезингер / John Schlesinger) [1985, Великобритания, США, триллер, драма, биография, HDRip] DVO (НТВ+) + Original Eng

Reply to topic
DL-List and Torrent activity
Size:  2.18 GB   |    Registered:  4 years 3 months   |    Completed:  0 times

Seeder not seen: Never

 
   
 
 
Author Message

star21 ®

Gender: Female

Longevity: 4 years 4 months

Posts: 551945

Location: Екатеринбург

Post 01-Dec-2015 13:58

[Quote]

Агенты Сокол и Снеговик / The Falcon and the Snowman
Страна: Великобритания, США
Студия: Hemdale Films
Жанр: триллер, драма, биография
Год выпуска: 1985
Продолжительность: 02:11:30
Перевод: Профессиональный (двухголосый закадровый) НТВ+
Cубтитры: нет
Оригинальная аудиодорожка: английский
Режиссер: Джон Шлезингер / John Schlesinger
В ролях: Тимоти Хаттон, Шон Пенн, Дэвид Суше, Борис Лескин, Пэт Хингл, Джойс Ван Паттен, Лори Сингер, Роб Рид, Роб Ньюэлл, Карен Уэст, Арт Камачо, Энни Козач, Ричард А. Дайсарт, Присцилла Пойнтер, Крис Мейкпис, Дориан Хэрвуд, Джерри Хардин, Джордж С. Грант, Анатолий Давыдов, Дженнифер Раньон, Дэниэл МакДональд, Марвин Дж. МакИнтайр, Сэм Инграффиа, Майкл Айронсайд, Валери Уайлдмен
Описание: В основу сюжета легла реальная история, произошедшая в США в 70-е годы, в самый разгар «холодной войны». Молодой государственный служащий Кристофер Бойс имеет доступ к сверхсекретным документам. То, что он узнает, полностью меняет его отношение к своей стране. От слепого патриотизма не остается и следа. Вместе со своим приятелем Долтоном он решает продавать военные секреты Советскому Союзу. Поначалу их шпионская деятельность больше похожа на комедию, но это не может продолжаться долго. Последствия оказываются драматическими.
II Сэмпл II [imdb]http://www.imdb.com/title/tt0087231[/imdb] II
Доп. информация:
За спасибо П.Емельян
Русская дорога записана с т/к MGM HD
Качество видео: HDRip
Формат видео: AVI
Видео: Xvid / 720x400 / 16:9 / 23.976fps / Bit rate 1967Kbps / b/p 0.285
Аудио 1: AC3 / 48.0KHz / 2ch. / 192kbps / rus / dvo / НТВ+
Аудио 2: AC3 / 48.0KHz / 2ch. / 192kbps / eng

MediaInfo

Общее
Полное имя : D:\torrent\The.Falcon.and.the.Snowman.1985.HDRip.avi
Формат : AVI
Формат/Информация : Audio Video Interleave
Профиль формата : OpenDML
Размер файла : 2,18 Гбайт
Продолжительность : 2 ч. 11 м.
Общий поток : 2369 Кбит/сек
Программа кодирования : VirtualDubMod 1.5.10.3 (build 2550/release)
Библиотека кодирования : VirtualDubMod build 2550/release
Видео
Идентификатор : 0
Формат : MPEG-4 Visual
Профиль формата : Advanced Simple@L5
Параметр BVOP формата : 2
Параметр QPel формата : Нет
Параметр GMC формата : Без точки перехода
Параметр матрицы формата : Default (H.263)
Идентификатор кодека : XVID
Идентификатор кодека/Подсказка : XviD
Продолжительность : 2 ч. 11 м.
Битрейт : 1967 Кбит/сек
Ширина : 720 пикселей
Высота : 400 пикселей
Соотношение сторон : 16:9
Частота кадров : 23,976 кадра/сек
Цветовое пространство : YUV
Субдискретизация насыщенности : 4:2:0
Битовая глубина : 8 бит
Тип развёртки : Прогрессивная
Метод сжатия : С потерями
Бит/(Пиксели*Кадры) : 0.285
Размер потока : 1,81 Гбайт (83%)
Библиотека кодирования : XviD 65
Аудио #1
Идентификатор : 1
Формат : AC-3
Формат/Информация : Audio Coding 3
Расширение режима : CM (complete main)
Параметр Endianness формата : Big
Идентификатор кодека : 2000
Продолжительность : 2 ч. 11 м.
Вид битрейта : Постоянный
Битрейт : 192 Кбит/сек
Каналы : 2 канала
Расположение каналов : Front: L R
Частота : 48,0 КГц
Метод сжатия : С потерями
Размер потока : 181 Мбайт (8%)
Выравнивание : Разделение по промежуткам
Продолжительность промежутка : 42 мс. (1,00 видеокадр)
Время предзагрузки промежутка : 500 мс.
Аудио #2
Идентификатор : 2
Формат : AC-3
Формат/Информация : Audio Coding 3
Расширение режима : CM (complete main)
Параметр Endianness формата : Big
Идентификатор кодека : 2000
Продолжительность : 2 ч. 11 м.
Вид битрейта : Постоянный
Битрейт : 192 Кбит/сек
Каналы : 2 канала
Расположение каналов : Front: L R
Частота : 48,0 КГц
Метод сжатия : С потерями
Размер потока : 181 Мбайт (8%)
Выравнивание : Разделение по промежуткам
Продолжительность промежутка : 42 мс. (1,00 видеокадр)
Время предзагрузки промежутка : 500 мс.

Скриншот c названием фильма

Скриншоты


To download the content you need:
1. Download and install torrent client [for Windows] or for mobile system
2. Click on [Download]
Attention.
If the test YOU are NOT a ROBOT - does not work, then You are using an outdated browser.
Install the current browser and click on [Download]

Do not work with Yandex browser. Uploading files to them is erroneous.
Security: torrent client is allowed by Kaspersky.

[en.asmlocator.ru].t4502.torrent 
Torrent: Registered [ 2015-12-01 13:55 ] · 7A1832AFEA283DFED120C30FC6AC6A9E68B7860A

Download .torrent

Download

11 KB

Status: checked
Completed: 0 times
Size: 2.18 GB
terms.php
[Profile] [PM]
Display posts:    
Reply to topic

Current time is: 29-Mar 18:23

All times are UTC ± 0



You cannot post new topics in this forum
You cannot reply to topics in this forum
You cannot edit your posts in this forum
You cannot delete your posts in this forum
You cannot vote in polls in this forum
You cannot attach files in this forum
You can download files in this forum
Верим фактам, а не вранью Путина! Факт, что Правительство ведёт Россию к истреблению.
Так как численность населения падает, даже не смотря на приток эмигрантов!
Русская нация вымирает и вырождается, смешиваясь с эмигрантами!
Факт, что военных и граждан предприятий заставляют голосовать за партию Единая Россия и Путина
ПОД СТРАХОМ УВОЛЬНЕНИЯ!
Нам не нужно Правительство, блокирующее личную жизнь, интернет, нарушающее сохранность данных.
Все эти действия финансируются за счёт народа!