Объект охоты / Честная игра / Fair Game (Марио Андреаччио / Mario Andreacchio) [1986, Австралия, ужасы, боевик, триллер, DVDRip-AVC] DVO (den904 & DeadSno)

Reply to topic
DL-List and Torrent activity
Size:  1.5 GB   |    Registered:  4 years 4 months   |    Completed:  1 time

Seeder not seen: 5 months 18 days

 
   
 
 
Author Message

star21 ®

Gender: Female

Longevity: 4 years 5 months

Posts: 551945

Location: Екатеринбург

Post 01-Dec-2015 13:57

[Quote]

Объект охоты / Честная игра / Fair Game
Страна: Австралия
Жанр: ужасы, боевик, триллер
Год выпуска: 1986
Продолжительность: 01:22:20
Перевод: Любительский (двухголосый закадровый) den904 & DeadSno по субтитрам dsa69
Cубтитры: Czech, Hungarian, Portuguese-BR, Serbian
Оригинальная аудиодорожка: английский
Режиссер: Марио Андреаччио / Mario Andreacchio
В ролях: Кассандра Делани, Питар Форд, Дэвид Сэнфорд, Гэрри Ху, Дон Баркер, Кармел Юнг, Адриан Ширли, Вейн Энтони
Описание: На пустынном австралийском проселке компания из трех приятелей-охотников на джипе и фургоне немного поиздевалась над стареньким «фордом» Джессики. Догнав шутников в фактории, где парни сдавали добытое мясо, девушка высказала все, что думает о них самих и их мужских достоинствах вместе взятых. Мужчины немного обиделись и решили проучить зарвавшуюся девчонку. Постепенно игра, казавшаяся поначалу безобидным развлечением, достигла такой стадии, что путей к отступлению не осталось у обеих сторон.
Сэмпл: http://multi-up.com/1055451
Качество: DVDRip-AVC
Формат: MKV
Видео: 720x576 @ 1024x576 (16:9), 25 fps, MPEG4/ISO/AVC, ~2228 kbps avg
Аудио 1: 48 kHz, AC3 Dolby Digital, 2/0 (L,R) ch, ~192.00 kbps avg
Аудио 2: 48 kHz, AC3 Dolby Digital, 2/0 (L,R) ch, ~192.00 kbps avg
ПЕРЕВЕДЕНО И ОЗВУЧЕНО ПО ЗАКАЗУ СЕРГЕЯ МОКРУШИНА

MediaInfo

Format : Matroska
File size : 1.50 GiB
Duration : 1h 22mn
Overall bit rate : 2 611 Kbps
Movie name : Fair.Game.by_rohh.1986.DVDRip
Encoded date : UTC 2015-06-25 05:37:11
Writing application : mkvmerge v4.5.0 ('Speed of Light') сборка от Feb 15 2011 12:50:20
Writing library : libebml v1.2.0 + libmatroska v1.1.0
Video
ID : 1
Format : AVC
Format/Info : Advanced Video Codec
Format profile : Main@L3.0
Format settings, CABAC : Yes
Format settings, ReFrames : 4 frames
Muxing mode : Container profile=Unknown@3.0
Codec ID : V_MPEG4/ISO/AVC
Duration : 1h 22mn
Bit rate : 2 175 Kbps
Nominal bit rate : 2 228 Kbps
Width : 720 pixels
Height : 576 pixels
Display aspect ratio : 16:9
Frame rate mode : Variable
Frame rate : 25.000 fps
Standard : PAL
Resolution : 24 bits
Colorimetry : 4:2:0
Scan type : Progressive
Bits/(Pixel*Frame) : 0.210
Stream size : 1.25 GiB (83%)
Title : Fair.Game.by_rohh.1986.DVDRip
Writing library : x264 core 112
Encoding settings : cabac=1 / ref=2 / deblock=1:0:0 / analyse=0x1:0x111 / me=hex / subme=6 / psy=1 / psy_rd=1.00:0.00 / mixed_ref=0 / me_range=16 / chroma_me=1 / trellis=0 / 8x8dct=0 / cqm=0 / deadzone=21,11 / fast_pskip=1 / chroma_qp_offset=-2 / threads=3 / sliced_threads=0 / nr=0 / decimate=1 / interlaced=0 / constrained_intra=0 / bframes=2 / b_pyramid=2 / b_adapt=1 / b_bias=0 / direct=1 / weightb=0 / open_gop=0 / weightp=2 / keyint=250 / keyint_min=25 / scenecut=40 / intra_refresh=0 / rc_lookahead=40 / rc=abr / mbtree=1 / bitrate=2228 / ratetol=1.0 / qcomp=0.60 / qpmin=3 / qpmax=51 / qpstep=4 / ip_ratio=1.40 / aq=1:1.00
colour_primaries : BT.601-6 525, BT.1358 525, BT.1700 NTSC, SMPTE 170M
transfer_characteristics : BT.709-5, BT.1361
matrix_coefficients : BT.601-6 525, BT.1358 525, BT.1700 NTSC, SMPTE 170M
Audio #1
ID : 2
Format : AC-3
Format/Info : Audio Coding 3
Codec ID : A_AC3
Duration : 1h 22mn
Bit rate mode : Constant
Bit rate : 192 Kbps
Channel(s) : 2 channels
Channel positions : L R
Sampling rate : 48.0 KHz
Stream size : 113 MiB (7%)
Language : Russian
Audio #2
ID : 3
Format : AC-3
Format/Info : Audio Coding 3
Codec ID : A_AC3
Duration : 1h 22mn
Bit rate mode : Constant
Bit rate : 192 Kbps
Channel(s) : 2 channels
Channel positions : L R
Sampling rate : 48.0 KHz
Stream size : 113 MiB (7%)
Text #1
ID : 4
Format : UTF-8
Codec ID : S_TEXT/UTF8
Codec ID/Info : UTF-8 Plain Text
Title : Czech
Language : Czech
Text #2
ID : 5
Format : UTF-8
Codec ID : S_TEXT/UTF8
Codec ID/Info : UTF-8 Plain Text
Title : Hungarian
Language : Hungarian
Text #3
ID : 6
Format : ASS
Codec ID : S_TEXT/ASS
Codec ID/Info : Advanced Sub Station Alpha
Title : Portuguese-BR
Language : Portuguese
Text #4
ID : 7
Format : UTF-8
Codec ID : S_TEXT/UTF8
Codec ID/Info : UTF-8 Plain Text
Title : Serbian
Language : Serbian

Скриншоты

To download the content you need:
1. Download and install torrent client [for Windows] or for mobile system
2. Click on [Download]
Attention.
If the test YOU are NOT a ROBOT - does not work, then You are using an outdated browser.
Install the current browser and click on [Download]

Do not work with Yandex browser. Uploading files to them is erroneous.
Security: torrent client is allowed by Kaspersky.

[en.asmlocator.ru].t4500.torrent 
Torrent: Registered [ 2015-12-01 13:55 ] · F5EE4D31B19C82F257E7C31E1F2F543A2C87D27D

Download .torrent

Download

15 KB

Status: checked
Completed: 1 times
Size: 1.5 GB
terms.php
[Profile] [PM]
Display posts:    
Reply to topic

Current time is: 07-Apr 18:53

All times are UTC ± 0



You cannot post new topics in this forum
You cannot reply to topics in this forum
You cannot edit your posts in this forum
You cannot delete your posts in this forum
You cannot vote in polls in this forum
You cannot attach files in this forum
You can download files in this forum
Верим фактам, а не вранью Путина! Факт, что Правительство ведёт Россию к истреблению.
Так как численность населения падает, даже не смотря на приток эмигрантов!
Русская нация вымирает и вырождается, смешиваясь с эмигрантами!
Факт, что военных и граждан предприятий заставляют голосовать за партию Единая Россия и Путина
ПОД СТРАХОМ УВОЛЬНЕНИЯ!
Нам не нужно Правительство, блокирующее личную жизнь, интернет, нарушающее сохранность данных.
Все эти действия финансируются за счёт народа!