Хэллоуин 2 / День всех святых 2 / Хэллоуин 2: Кровавая ночь всех святых / Halloween II (Рик Розенталь / Rick Rosenthal) [1981, США, ужасы, триллер, BDRip] AVO (Живов)

Reply to topic
DL-List and Torrent activity
Size:  723 MB   |    Registered:  4 years 4 months   |    Completed:  0 times

Seeder not seen: Never

 
   
 
 
Author Message

star21 ®

Gender: Female

Longevity: 4 years 5 months

Posts: 551945

Location: Екатеринбург

Post 01-Dec-2015 13:57

[Quote]

Хэллоуин 2 / День всех святых 2 / Хэллоуин 2: Кровавая ночь всех святых / Halloween II Страна: США
Жанр: ужасы, триллер
Год выпуска: 1981
Продолжительность: 01:32:31
Перевод: Авторский (одноголосый закадровый) Юрий Живов
Cубтитры: нет
Режиссер: Рик Розенталь / Rick Rosenthal
В ролях: Джейми Ли Кёртис, Дональд Плезенс, Чарльз Сайферс, Лэнс Гест, Памела Сьюзан Шуп, Хантер Фон Лир, Тони Мойер, Ана Алисия, Нэнси Стивенс, Глория Гиффорд, Лео Росси, Форд Рейни
Описание: 31 октября 1975 года. По городу проносится волна кровавых убийств. Жители шепотом произносят имя Майкла Майерса, кровавого маньяка, который вернулся как раз на Хэллоуин. Его прежняя жертва, Лори Строуд, выжила, и он вернулся, чтобы закончить начатое. На сей раз преследования Лори приводят его в больницу, и в ее темных коридорах хладнокровный неубиваемый психопат находит свои жертвы.
[imdb]http://www.imdb.com/title/tt0082495[/imdb]
Качество видео:
Формат видео: AVI
Видео кодек: XviD
Аудио кодек: AC3
Видео: 672x288 (2.33:1), 23.976 fps, XviD build 65 ~986 kbps avg, 0.21 bit/pixel
Аудио: 48 kHz, AC3 Dolby Digital, 1/0 (C) ch, ~96 kbps

Доп.инфо

за видеоряд спасибо DIABLO93
за дорогу Живова спасибо Fikaloid

MediaInfo

Полное имя : Хэллоуин 2.avi
Формат : AVI
Формат/Информация : Audio Video Interleave
Размер файла : 723 Мбайт
Продолжительность : 1 ч. 32 м.
Общий поток : 1092 Кбит/сек
Программа кодирования : VirtualDubMod 1.5.10.2 (build 2540/release)
Библиотека кодирования : VirtualDubMod build 2540/release
Видео
Идентификатор : 0
Формат : MPEG-4 Visual
Профиль формата : Advanced Simple@L5
Параметр BVOP формата : 2
Параметр QPel формата : Нет
Параметр GMC формата : Без точки перехода
Параметр матрицы формата : Выборочная
Идентификатор кодека : XVID
Идентификатор кодека/Подсказка : XviD
Продолжительность : 1 ч. 32 м.
Битрейт : 987 Кбит/сек
Ширина : 672 пикселя
Высота : 288 пикселей
Соотношение сторон : 2,35:1
Частота кадров : 23,976 кадра/сек
Цветовое пространство : YUV
Субдискретизация насыщенности : 4:2:0
Битовая глубина : 8 бит
Тип развёртки : Прогрессивная
Метод сжатия : С потерями
Бит/(Пиксели*Кадры) : 0.213
Размер потока : 653 Мбайт (90%)
Библиотека кодирования : XviD 65
Аудио
Идентификатор : 1
Формат : AC-3
Формат/Информация : Audio Coding 3
Расширение режима : CM (complete main)
Параметр Endianness формата : Big
Идентификатор кодека : 2000
Продолжительность : 1 ч. 32 м.
Вид битрейта : Постоянный
Битрейт : 96,0 Кбит/сек
Каналы : 1 канал
Расположение каналов : Front: C
Частота : 48,0 КГц
Битовая глубина : 16 бит
Метод сжатия : С потерями
Размер потока : 63,5 Мбайт (9%)
Выравнивание : Разделение по промежуткам
Продолжительность промежутка : 42 мс. (1,00 видеокадр)
Время предзагрузки промежутка : 500 мс.

Скриншоты

To download the content you need:
1. Download and install torrent client [for Windows] or for mobile system
2. Click on [Download]
Attention.
If the test YOU are NOT a ROBOT - does not work, then You are using an outdated browser.
Install the current browser and click on [Download]

Do not work with Yandex browser. Uploading files to them is erroneous.
Security: torrent client is allowed by Kaspersky.

[en.asmlocator.ru].t4496.torrent 
Torrent: Registered [ 2015-12-01 13:55 ] · 3B26BD85C67613475B5007AA1403E40934D82AC1

Download .torrent

Download

15 KB

Status: checked
Completed: 0 times
Size: 723 MB
terms.php
[Profile] [PM]
Display posts:    
Reply to topic

Current time is: 08-Apr 02:36

All times are UTC ± 0



You cannot post new topics in this forum
You cannot reply to topics in this forum
You cannot edit your posts in this forum
You cannot delete your posts in this forum
You cannot vote in polls in this forum
You cannot attach files in this forum
You can download files in this forum
Верим фактам, а не вранью Путина! Факт, что Правительство ведёт Россию к истреблению.
Так как численность населения падает, даже не смотря на приток эмигрантов!
Русская нация вымирает и вырождается, смешиваясь с эмигрантами!
Факт, что военных и граждан предприятий заставляют голосовать за партию Единая Россия и Путина
ПОД СТРАХОМ УВОЛЬНЕНИЯ!
Нам не нужно Правительство, блокирующее личную жизнь, интернет, нарушающее сохранность данных.
Все эти действия финансируются за счёт народа!