Высшая Черта / Top Line (Нелло Россатти / Nello Rossati) [1988, Италия, фантастика, TVRip] DVO (НТВ)

Reply to topic
DL-List and Torrent activity
Size:  1.46 GB   |    Registered:  4 years 4 months   |    Completed:  0 times

Seeder not seen: Never

 
   
 
 
Author Message

star21 ®

Gender: Female

Longevity: 4 years 4 months

Posts: 551945

Location: Екатеринбург

Post 01-Dec-2015 13:57

[Quote]

Высшая Черта / Top Line
Страна: Италия
Жанр: фантастика
Год выпуска: 1988
Продолжительность: 01:28:27
Перевод: Профессиональный (двухголосый закадровый) НТВ
Cубтитры: нет
Оригинальная аудиодорожка: нет
Режиссер: Режиссер: Нелло Россатти / Nello Rossati
В ролях: Франко Неро (Ted Angelo), Дебора Мур (June), Мэри Стэвин (Maureen De Havilland), Вильям Бергер (Alonso Kintero), Ширли Эрнандез (Juanita), Ларри Долгин, Роберт Редгросс, Родриго Обрегон (José / Robot), Стивен Луотто, Джордж Кеннеди (Heinrich Holzmann), Домициано Арканджели (David Nobili)
Описание: Тед Анджело, спивающийся писатель из Италии, приезжает в Южную Америку, чтобы предложить серию книг о доколумбовых народах Нового Света нью-йоркскому издателю. В Колумбии он случайно узнаёт сокровищах на борту испаснкой каравеллы, спрятанной в горной пещере. Тед находит пещеру, но вместе с каравеллой в ней оказывается… космический корабль пришельцев. Анджело обращается к своему другу, чтобы тот прислал людей и помог ему снять документальный фильм, который, возможно, станет главным его произведением и пропуском в новую жизнь. Но прибывшие люди на самом деле оказываются агентами ЦРУ. Так Тед оказывается посвящённым в очень опасную тайну, кроме американской службы безопасности ему придётся иметь дело и с русской, а затем скрываться от киборга-убийцы.
Исходник видео: из СГ.
Сэмпл: http://multi-up.com/1055582
Качество: TVRip
Формат: AVI
Видео: 704x480 (1.47:1), 25 fps, XviD build 50 ~2160 kbps avg, 0.26 bit/pixel
Аудио: 48 kHz, AC3 Dolby Digital, 2/0 (L,R) ch, ~192 kbps

MediaInfo

Format : AVI
Format/Info : Audio Video Interleave
File size : 1.46 GiB
Duration : 1h 28mn
Overall bit rate : 2 362 Kbps
Writing application : VirtualDubMod 1.5.10.3 | www.virtualdub-fr.org || (build 2550/release)
Writing library : VirtualDubMod build 2550/release
Video
ID : 0
Format : MPEG-4 Visual
Format profile : AdvancedSimple@L5
Format settings, BVOP : Yes
Format settings, QPel : No
Format settings, GMC : No warppoints
Format settings, Matrix : Default (MPEG)
Codec ID : DX50
Codec ID/Hint : DivX 5
Duration : 1h 28mn
Bit rate : 2 161 Kbps
Width : 704 pixels
Height : 480 pixels
Display aspect ratio : 1.467
Frame rate : 25.000 fps
Resolution : 24 bits
Colorimetry : 4:2:0
Scan type : Progressive
Bits/(Pixel*Frame) : 0.256
Stream size : 1.34 GiB (91%)
Writing library : XviD 1.2.1 (UTC 2008-12-04)
Audio
ID : 1
Format : AC-3
Format/Info : Audio Coding 3
Codec ID : 2000
Duration : 1h 28mn
Bit rate mode : Constant
Bit rate : 192 Kbps
Channel(s) : 2 channels
Channel positions : L R
Sampling rate : 48.0 KHz
Stream size : 121 MiB (8%)
Alignment : Split accross interleaves
Interleave, duration : 40 ms (1.00 video frame)
Interleave, preload duration : 500 ms

Скриншоты

To download the content you need:
1. Download and install torrent client [for Windows] or for mobile system
2. Click on [Download]
Attention.
If the test YOU are NOT a ROBOT - does not work, then You are using an outdated browser.
Install the current browser and click on [Download]

Do not work with Yandex browser. Uploading files to them is erroneous.
Security: torrent client is allowed by Kaspersky.

[en.asmlocator.ru].t4495.torrent 
Torrent: Registered [ 2015-12-01 13:55 ] · 5502EDDC8CB57F1FFCC271029473C76F54BCC566

Download .torrent

Download

15 KB

Status: checked
Completed: 0 times
Size: 1.46 GB
terms.php
[Profile] [PM]
Display posts:    
Reply to topic

Current time is: 04-Apr 15:53

All times are UTC ± 0



You cannot post new topics in this forum
You cannot reply to topics in this forum
You cannot edit your posts in this forum
You cannot delete your posts in this forum
You cannot vote in polls in this forum
You cannot attach files in this forum
You can download files in this forum
Верим фактам, а не вранью Путина! Факт, что Правительство ведёт Россию к истреблению.
Так как численность населения падает, даже не смотря на приток эмигрантов!
Русская нация вымирает и вырождается, смешиваясь с эмигрантами!
Факт, что военных и граждан предприятий заставляют голосовать за партию Единая Россия и Путина
ПОД СТРАХОМ УВОЛЬНЕНИЯ!
Нам не нужно Правительство, блокирующее личную жизнь, интернет, нарушающее сохранность данных.
Все эти действия финансируются за счёт народа!