Иствикские ведьмы / The Witches of Eastwick (Джордж Миллер / George Miller) [1987, США, фэнтези, комедия, BDRip] Dub (Варус Видео) + Original Eng

Reply to topic
DL-List and Torrent activity
Size:  2.13 GB   |    Registered:  4 years 4 months   |    Completed:  0 times

Seeder not seen: Never

 
   
 
 
Author Message

star21 ®

Gender: Female

Longevity: 4 years 5 months

Posts: 551945

Location: Екатеринбург

Post 01-Dec-2015 13:57

[Quote]

Иствикские ведьмы / The Witches of Eastwick
Страна: США
Жанр: фэнтези, комедия
Год выпуска: 1987
Продолжительность: 01:58:01
Перевод: Профессиональный (дублированный) Варус Видео
Cубтитры: нет
Оригинальная аудиодорожка: английский
Режиссер: Джордж Миллер / George Miller
В ролях: Джек Николсон, Мишель Пфайффер, Шер, Сьюзен Сарандон, Вероника Картрайт, Ричард Дженкинс
Описание: Три современные ведьмы тоскуют по своему идеальному мужчине в маленьком городке Новой Англии. Неужели появление богатого и неотразимого Дэрила Ван Хорна просто совпадение или сработало непреднамеренное женское колдовство?
Доп. информация:
Видеоряд взят из этой раздачи , за которую благодарим kingsize87.
За звуковую дорожку с дубляжом Варус Видео большое спасибо Glowamy.
За синхронизацию звуковой дорожки огромная благодарность JUSTKANT.
Данный дубляж на трекере впервые!
Сэмпл: https://www.sendspace.com/file/puk6ah
Качество видео: BDRip
Формат видео: AVI
Видео: 720x304, 23.976 fps, MPEG-4 Visual, 1926 kbps, XviD 1.2.1
Аудио 1: 48 KHz, AC3, 2 ch, 192 Kbps - Dub (Варус)
Аудио 2: 48 KHz, AC3, 6 ch, 448 Kbps - Original Eng

MediaInfo

General
Complete name : C:\Users\Сергей\Downloads\Иствикские ведьмы.avi
Format : AVI
Format/Info : Audio Video Interleave
Format profile : OpenDML
File size : 2.13 GiB
Duration : 1h 58mn
Overall bit rate : 2 584 Kbps
Movie name : Istvikskie.vedmy (1987) BDRip
Writing application : VirtualDubMod 1.5.10.2 (build 2540/release)
Writing library : VirtualDubMod build 2540/release
Video
ID : 0
Format : MPEG-4 Visual
Format profile : Advanced Simple@L5
Format settings, BVOP : 1
Format settings, QPel : No
Format settings, GMC : No warppoints
Format settings, Matrix : Default (MPEG)
Codec ID : XVID
Codec ID/Hint : XviD
Duration : 1h 58mn
Bit rate : 1 926 Kbps
Width : 720 pixels
Height : 304 pixels
Display aspect ratio : 2.35:1
Frame rate : 23.976 fps
Color space : YUV
Chroma subsampling : 4:2:0
Bit depth : 8 bits
Scan type : Progressive
Compression mode : Lossy
Bits/(Pixel*Frame) : 0.367
Stream size : 1.59 GiB (75%)
Writing library : XviD 1.2.1 (UTC 2008-12-04)
Audio #1
ID : 1
Format : AC-3
Format/Info : Audio Coding 3
Mode extension : CM (complete main)
Format settings, Endianness : Big
Codec ID : 2000
Duration : 1h 58mn
Bit rate mode : Constant
Bit rate : 192 Kbps
Channel(s) : 2 channels
Channel positions : Front: L R
Sampling rate : 48.0 KHz
Bit depth : 16 bits
Compression mode : Lossy
Stream size : 162 MiB (7%)
Alignment : Split accross interleaves
Interleave, duration : 42 ms (1.00 video frame)
Interleave, preload duration : 500 ms
Audio #2
ID : 2
Format : AC-3
Format/Info : Audio Coding 3
Mode extension : CM (complete main)
Format settings, Endianness : Big
Codec ID : 2000
Duration : 1h 58mn
Bit rate mode : Constant
Bit rate : 448 Kbps
Channel(s) : 6 channels
Channel positions : Front: L C R, Side: L R, LFE
Sampling rate : 48.0 KHz
Bit depth : 16 bits
Compression mode : Lossy
Stream size : 378 MiB (17%)
Alignment : Split accross interleaves
Interleave, duration : 42 ms (1.00 video frame)
Interleave, preload duration : 500 ms

Скриншоты

To download the content you need:
1. Download and install torrent client [for Windows] or for mobile system
2. Click on [Download]
Attention.
If the test YOU are NOT a ROBOT - does not work, then You are using an outdated browser.
Install the current browser and click on [Download]

Do not work with Yandex browser. Uploading files to them is erroneous.
Security: torrent client is allowed by Kaspersky.

[en.asmlocator.ru].t4494.torrent 
Torrent: Registered [ 2015-12-01 13:55 ] · B85B0CE9A99CDEFBB7170D465FF644449FDD4843

Download .torrent

Download

11 KB

Status: checked
Completed: 0 times
Size: 2.13 GB
terms.php
[Profile] [PM]
Display posts:    
Reply to topic

Current time is: 08-Apr 01:27

All times are UTC ± 0



You cannot post new topics in this forum
You cannot reply to topics in this forum
You cannot edit your posts in this forum
You cannot delete your posts in this forum
You cannot vote in polls in this forum
You cannot attach files in this forum
You can download files in this forum
Верим фактам, а не вранью Путина! Факт, что Правительство ведёт Россию к истреблению.
Так как численность населения падает, даже не смотря на приток эмигрантов!
Русская нация вымирает и вырождается, смешиваясь с эмигрантами!
Факт, что военных и граждан предприятий заставляют голосовать за партию Единая Россия и Путина
ПОД СТРАХОМ УВОЛЬНЕНИЯ!
Нам не нужно Правительство, блокирующее личную жизнь, интернет, нарушающее сохранность данных.
Все эти действия финансируются за счёт народа!