Цвет ненависти / Il colore dell\'odio (Паскуале Скуитьери / Pasquale Squitieri) [1989, Италия, социальная драма, DVB-AVC] DVO (Kino Polska)

Reply to topic
DL-List and Torrent activity
Size:  548 MB   |    Registered:  4 years 3 months   |    Completed:  1 time

Seeder not seen: 5 months 11 days

 
   
 
 
Author Message

star21 ®

Gender: Female

Longevity: 4 years 4 months

Posts: 551945

Location: Екатеринбург

Post 01-Dec-2015 13:57

[Quote]

Цвет ненависти
Il colore dell'odio- Страна: Италия
Жанр: социальная драма
Год выпуска: 1989
Продолжительность: 01:32:54Перевод: Профессиональный (двухголосый закадровый) по заказу Kino Polska на производственно-технической базе Студии "Акцент"
Cубтитры: нет
Режиссер: Паскуале Скуитьери / Pasquale Squitieri
В ролях: Каролина Рози / Carolina Rosi (Miriam), Сальваторе Марино / Salvatore Marino (Rashid), Виктор Кавалло / Victor Cavallo, Анна Циннеманн / Anna Zinnemann, Эрманно Де Бьяджи / Ermanno De Biagi
Описание: Мириам, дочь владельца рыболовных судов, влюблена в Рашида, сына сицилийца и марокканки, вот уже 10 лет живущего в Италии и работающего на ее отца. Свидетель убийства арабского дипломата ошибочно опознает в нем убийцу, и Рашиду приходится скрываться. Только Мириам может подтвердить его алиби, ведь во время убийства они были вместе в отеле…
Доп. информация: Filmbox Arthouse IPTV
[imdb]http://www.imdb.com/title/tt0205828[/imdb]
Качество видео: DVB-AVC
Формат видео: MKV
Видео: AVC (H.264), 720x576@1024x576 (16:9), 25 fps, ~681 kbps avg, 0.066 bit/pixel
Аудио: MPEG Audio 2, 2 ch, 48 kHz, ~128.00 kbps avg

MediaInfo

ОбщееУникальный идентификатор                 : 236107825772197477071705629149373648940 (0xB1A0B692B1D9D7F484272DDB096FD02C)Полное имя                               : F:\My Torrents 3\[apreder]Il_colore_dell'odio(1989)DVB.mkvФормат                                   : MatroskaВерсия формата                           : Version 2Размер файла                             : 548 МбайтПродолжительность                        : 1 ч. 32 м.Общий поток                              : 825 Кбит/секДата кодирования                         : UTC 2015-06-26 16:16:08Программа кодирования                    : mkvmerge v8.0.0 ('Til The Day That I Die') 64bitБиблиотека кодирования                   : libebml v1.3.1 + libmatroska v1.4.2
ВидеоИдентификатор : 2Формат : AVCФормат/Информация : Advanced Video CodecПрофиль формата : Main@L3Параметр CABAC формата : ДаПараметр ReFrames формата : 3 кадраПараметр GOP формата : M=4, N=32Идентификатор кодека : V_MPEG4/ISO/AVCПродолжительность : 1 ч. 32 м.Битрейт : 681 Кбит/секШирина : 720 пикселейВысота : 576 пикселейСоотношение сторон : 16:9Соотношение сторон в оригинале : 16:9Режим частоты кадров : ПостоянныйЧастота кадров : 25,000 кадров/секСтандарт вещания : ComponentЦветовое пространство : YUVСубдискретизация насыщенности : 4:2:0Битовая глубина : 8 битТип развёртки : ПрогрессивнаяПорядок развёртки : Верхнее поле первоеБит/(Пиксели*Кадры) : 0.066Размер потока : 452 Мбайт (83%)Default : ДаForced : Нетcolour_range : LimitedОсновные цвета : BT.601 PALХарактеристики трансфера : BT.470 System B, BT.470 System GКоэффициенты матрицы : BT.601
АудиоИдентификатор : 1Формат : MPEG AudioВерсия формата : Version 1Профиль формата : Layer 2Идентификатор кодека : A_MPEG/L2Идентификатор кодека/Подсказка : MP2Продолжительность : 1 ч. 32 м.Вид битрейта : ПостоянныйБитрейт : 128 Кбит/секКаналы : 2 каналаЧастота : 48,0 КГцМетод сжатия : С потерямиЗадержка видео : -19 мс.Размер потока : 85,1 Мбайт (16%)Язык : RussianDefault : ДаForced : Нет

Скриншот c названием фильма

Скриншоты


Резервные скриншоты


-[2'385]

To download the content you need:
1. Download and install torrent client [for Windows] or for mobile system
2. Click on [Download]
Attention.
If the test YOU are NOT a ROBOT - does not work, then You are using an outdated browser.
Install the current browser and click on [Download]

Do not work with Yandex browser. Uploading files to them is erroneous.
Security: torrent client is allowed by Kaspersky.

[en.asmlocator.ru].t4493.torrent 
Torrent: Registered [ 2015-12-01 13:55 ] · 7C24D960DB643222D0A77566AF66729B15847C83

Download .torrent

Download

11 KB

Status: checked
Completed: 1 times
Size: 548 MB
terms.php
[Profile] [PM]
Display posts:    
Reply to topic

Current time is: 31-Mar 16:08

All times are UTC ± 0



You cannot post new topics in this forum
You cannot reply to topics in this forum
You cannot edit your posts in this forum
You cannot delete your posts in this forum
You cannot vote in polls in this forum
You cannot attach files in this forum
You can download files in this forum
Верим фактам, а не вранью Путина! Факт, что Правительство ведёт Россию к истреблению.
Так как численность населения падает, даже не смотря на приток эмигрантов!
Русская нация вымирает и вырождается, смешиваясь с эмигрантами!
Факт, что военных и граждан предприятий заставляют голосовать за партию Единая Россия и Путина
ПОД СТРАХОМ УВОЛЬНЕНИЯ!
Нам не нужно Правительство, блокирующее личную жизнь, интернет, нарушающее сохранность данных.
Все эти действия финансируются за счёт народа!