Лошадник / Horseplayer (Курт Восс / Kurt Voss) [1990, США, Драма, триллер, DVDRip] AVO (Гаврилов)

Reply to topic
DL-List and Torrent activity
Size:  1.5 GB   |    Registered:  4 years 3 months   |    Completed:  0 times

Seeder not seen: 1 year 7 months

 
   
 
 
Author Message

star21 ®

Gender: Female

Longevity: 4 years 4 months

Posts: 551945

Location: Екатеринбург

Post 01-Dec-2015 13:57

[Quote]

Лошадник / Horseplayer
Страна: США
Жанр: Драма , триллер
Год выпуска: 1990
Продолжительность: 01:31:21
Перевод: Авторский (одноголосый закадровый) А. Гаврилов
Cубтитры: нет
Режиссер: Курт Восс / Kurt Voss
В ролях: Брэд Дурифф, Сэмми Дэвис, Майкл Харрис, Макс Перлих, Вик Тейбэк, Рокки Джордани, Дебби Стил, Стивен Сабан, Пино Джордани
Описание: Бад Коуэн - лошадник! В дни скачек Бад ходит на ипподром, а в другие дни просиживает в холодильнике маленького магазинчика, где в его обязанности входит пополнение запасов еды и питья на витринах, откуда покупатели берут товары. Никаких проблем с работой у Коуэна не было - по крайней мере, до тех пор, пока его соседями не стала странноватая парочка: симпатичная невысокая девушка Рэнди и долговязый Мэтью, называющий себя художником и братом Рэнди. Получив от них приглашение зайти в гости, Бад пришел домой и достал вырезки из старых газет со статьями о себе: 'Убита студентка. Подозревается Бад Коуэн'...
Доп. информация: Дорога взята и синхронизирована из раздачи alenavova
Сэмпл: https://www.sendspace.com/file/x6mi5m
Качество видео: DVDRip
Формат видео: AVI
Видео: XviD MPEG-4 , 640x480 (1.33:1) , 29.970 fps , 2 142 Kbps
Аудио: AC3 , 48 kHz , 192.00 kbps avg , 2/0 (L,R) ch

MediaInfo

Complete name Лошадник 1990.avi
Format : AVI
Format/Info : Audio Video Interleave
File size : 1.50 GiB
Duration : 1h 31mn
Overall bit rate : 2 346 Kbps
Writing application : VirtualDubMod 1.5.4.1 (build 2178/release)
Writing library : VirtualDub build 35491/release
Video
ID : 0
Format : MPEG-4 Visual
Format profile : Advanced Simple@L5
Format settings, BVOP : 1
Format settings, QPel : No
Format settings, GMC : No warppoints
Format settings, Matrix : Custom
Codec ID : XVID
Codec ID/Hint : XviD
Duration : 1h 31mn
Bit rate : 2 142 Kbps
Width : 640 pixels
Height : 480 pixels
Display aspect ratio : 4:3
Frame rate : 29.970 fps
Color space : YUV
Chroma subsampling : 4:2:0
Bit depth : 8 bits
Scan type : Progressive
Compression mode : Lossy
Bits/(Pixel*Frame) : 0.233
Stream size : 1.37 GiB (91%)
Writing library : XviD 1.2.1 (UTC 2008-12-04)
Audio
ID : 1
Format : AC-3
Format/Info : Audio Coding 3
Mode extension : CM (complete main)
Format settings, Endianness : Big
Codec ID : 2000
Duration : 1h 31mn
Bit rate mode : Constant
Bit rate : 192 Kbps
Channel(s) : 2 channels
Channel positions : Front: L R
Sampling rate : 48.0 KHz
Bit depth : 16 bits
Compression mode : Lossy
Stream size : 125 MiB (8%)
Alignment : Aligned on interleaves
Interleave, duration : 33 ms (1.00 video frame)
Interleave, preload duratio : 512 ms

Скриншоты

To download the content you need:
1. Download and install torrent client [for Windows] or for mobile system
2. Click on [Download]
Attention.
If the test YOU are NOT a ROBOT - does not work, then You are using an outdated browser.
Install the current browser and click on [Download]

Do not work with Yandex browser. Uploading files to them is erroneous.
Security: torrent client is allowed by Kaspersky.

[en.asmlocator.ru].t4492.torrent 
Torrent: Registered [ 2015-12-01 13:55 ] · 008994D2BA10256C81D61C9F53748CA25FDB7EDC

Download .torrent

Download

16 KB

Status: checked
Completed: 0 times
Size: 1.5 GB
terms.php
[Profile] [PM]
Display posts:    
Reply to topic

Current time is: 29-Mar 00:15

All times are UTC ± 0



You cannot post new topics in this forum
You cannot reply to topics in this forum
You cannot edit your posts in this forum
You cannot delete your posts in this forum
You cannot vote in polls in this forum
You cannot attach files in this forum
You can download files in this forum
Верим фактам, а не вранью Путина! Факт, что Правительство ведёт Россию к истреблению.
Так как численность населения падает, даже не смотря на приток эмигрантов!
Русская нация вымирает и вырождается, смешиваясь с эмигрантами!
Факт, что военных и граждан предприятий заставляют голосовать за партию Единая Россия и Путина
ПОД СТРАХОМ УВОЛЬНЕНИЯ!
Нам не нужно Правительство, блокирующее личную жизнь, интернет, нарушающее сохранность данных.
Все эти действия финансируются за счёт народа!