Это гениально, дедушка! / Il est génial papy! (Мишель Драш / Michel Drach) [1987, Франция, комедия, DVDRip] VO + Sub Rus + Original Fre

Reply to topic
DL-List and Torrent activity
Size:  782 MB   |    Registered:  4 years 3 months   |    Completed:  1 time

Seeder not seen: 5 months 9 days

 
   
 
 
Author Message

star21 ®

Gender: Female

Longevity: 4 years 4 months

Posts: 551945

Location: Екатеринбург

Post 01-Dec-2015 13:57

[Quote]

Это гениально, дедушка! / Il est génial papy!
Страна: Франция
Жанр: комедия
Год выпуска: 1987
Продолжительность: 01:28:31
Перевод: Одноголосый закадровый
Cубтитры: русские
Оригинальная аудиодорожка: французский
Режиссер: Мишель Драш / Michel Drach
В ролях: Гай Бедос / Guy Bedos, Мари Лафоре / Marie Laforêt, Фабьен Шомбар / Fabien Chombart, Элизабет Витали / élisabeth Vitali, Изабель Мерго / Isabelle Mergault, Аладин Райбел / Aladin Reibel, Жинетт Гарсен / Ginette Garcin, Арно Барет / Arnaud Baret, Жан-Пьерр Леклерк / Jean-Pierre Leclerc, Арман Бабель / Armand Babel, Клод Легро / Claude Legros, Жак Рамад / Jacques Ramade, Оливье Саладен / Olivier Saladin, Бернард Росселли / Bernard Rosselli, Жерар Мартин / Gérard Martin, Пьер Бело / Pierre Belot, Даниэль Мильграм / Daniel Milgram, Дмитрий Радочевич / Dimitri Radochevitch, Фрэнки Пэйн / Frankie Pain, Тони Рёдель / Tony Rödel, Виктор Оширо / Victor Oshiro.
Описание: Себастьян — скрипач, подрабатывающий в ночном клубе. В один из дней у дверей своей квартиры он обнаруживает мальчика, который утверждает, что он внук Себастьяна. Оказывается мальчик, сбежавший к деду из летнего пансиона — сын дочери Себастьяна, которая живет в Америке. Себастьян в панике. Ведь мальчишка здорово усложнил жизнь деду, которому теперь придется как-то сочетать свою личную жизнь, работу и заботу о внуке.
Доп. информация: Фильм взят отсюда
Сэмпл: http://multi-up.com/1055698
Качество видео: DVDRip
Формат видео: AVI
Видео: MPEG-4 Visual at 964 Кбит/сек : 576 x 320 (1.800) at 25.000 fps
Аудио 1: MPEG Audio at 128 Кбит/сек : 2 канала, 48,0 КГц(Русский)
Аудио 2: MPEG Audio at 128 Кбит/сек : 2 канала, 48,0 КГц(Французский)
Формат субтитров: softsub (SRT)
Доп. информация о субтитрах: Русские внешние (kitmur при участии Japan Mother, flomaster119, prostotak)

MediaInfo

Общее
Полное имя : F:\С моей озвучкой\Это гениально, дедушка!\Il est génial papy!.avi
Формат : AVI
Формат/Информация : Audio Video Interleave
Размер файла : 782 Мбайт
Продолжительность : 1 ч. 28 м.
Общий поток : 1235 Кбит/сек
Программа кодирования : VirtualDubModRus 1.5.10.2 (build 2542/release)
Библиотека кодирования : VirtualDubMod build 2542/release
Видео
Идентификатор : 0
Формат : MPEG-4 Visual
Профиль формата : Advanced Simple@L5
Параметр BVOP формата : 1
Параметр QPel формата : Нет
Параметр GMC формата : Без точки перехода
Параметр матрицы формата : Default (H.263)
Режим смешивания : Сжатый битовый поток
Идентификатор кодека : XVID
Идентификатор кодека/Подсказка : XviD
Продолжительность : 1 ч. 28 м.
Битрейт : 964 Кбит/сек
Ширина : 576 пикселей
Высота : 320 пикселей
Соотношение сторон : 16:9
Частота кадров : 25,000 кадров/сек
Цветовое пространство : YUV
Субдискретизация насыщенности : 4:2:0
Битовая глубина : 8 бит
Тип развёртки : Прогрессивная
Метод сжатия : С потерями
Бит/(Пиксели*Кадры) : 0.209
Размер потока : 611 Мбайт (78%)
Библиотека кодирования : XviD 62
Аудио #1
Идентификатор : 1
Формат : MPEG Audio
Версия формата : Version 1
Профиль формата : Layer 3
Режим : Joint stereo
Расширение режима : MS Stereo
Идентификатор кодека : 55
Идентификатор кодека/Подсказка : MP3
Продолжительность : 1 ч. 28 м.
Вид битрейта : Постоянный
Битрейт : 128 Кбит/сек
Каналы : 2 канала
Частота : 48,0 КГц
Метод сжатия : С потерями
Размер потока : 81,0 Мбайт (10%)
Выравнивание : Соединение по промежуткам
Продолжительность промежутка : 40 мс. (1,00 видеокадр)
Время предзагрузки промежутка : 504 мс.
Библиотека кодирования : LAME3.96
Аудио #2
Идентификатор : 2
Формат : MPEG Audio
Версия формата : Version 1
Профиль формата : Layer 3
Режим : Joint stereo
Расширение режима : MS Stereo
Идентификатор кодека : 55
Идентификатор кодека/Подсказка : MP3
Продолжительность : 1 ч. 28 м.
Вид битрейта : Постоянный
Битрейт : 128 Кбит/сек
Каналы : 2 канала
Частота : 48,0 КГц
Метод сжатия : С потерями
Размер потока : 81,0 Мбайт (10%)
Выравнивание : Соединение по промежуткам
Продолжительность промежутка : 40 мс. (1,00 видеокадр)
Время предзагрузки промежутка : 504 мс.
Библиотека кодирования : LAME3.98r
Настройки программы : -m j -V 4 -q 2 -lowpass 17 -b 128

Скриншоты

To download the content you need:
1. Download and install torrent client [for Windows] or for mobile system
2. Click on [Download]
Attention.
If the test YOU are NOT a ROBOT - does not work, then You are using an outdated browser.
Install the current browser and click on [Download]

Do not work with Yandex browser. Uploading files to them is erroneous.
Security: torrent client is allowed by Kaspersky.

[en.asmlocator.ru].t4491.torrent 
Torrent: Registered [ 2015-12-01 13:55 ] · 7273F9E03F06DBB721FC45FBF3ADA60A464B37B8

Download .torrent

Download

16 KB

Status: checked
Completed: 1 times
Size: 782 MB
terms.php
[Profile] [PM]
Display posts:    
Reply to topic

Current time is: 29-Mar 18:55

All times are UTC ± 0



You cannot post new topics in this forum
You cannot reply to topics in this forum
You cannot edit your posts in this forum
You cannot delete your posts in this forum
You cannot vote in polls in this forum
You cannot attach files in this forum
You can download files in this forum
Верим фактам, а не вранью Путина! Факт, что Правительство ведёт Россию к истреблению.
Так как численность населения падает, даже не смотря на приток эмигрантов!
Русская нация вымирает и вырождается, смешиваясь с эмигрантами!
Факт, что военных и граждан предприятий заставляют голосовать за партию Единая Россия и Путина
ПОД СТРАХОМ УВОЛЬНЕНИЯ!
Нам не нужно Правительство, блокирующее личную жизнь, интернет, нарушающее сохранность данных.
Все эти действия финансируются за счёт народа!