Капля / The Blob (Чак Рассел / Chuck Russell) [1988, США, ужасы, фантастика, BDRip] MVO (Россия)

Reply to topic
DL-List and Torrent activity
Size:  1.46 GB   |    Registered:  4 years 4 months   |    Completed:  0 times

Seeder not seen: Never

 
   
 
 
Author Message

star21 ®

Gender: Female

Longevity: 4 years 5 months

Posts: 551945

Location: Екатеринбург

Post 01-Dec-2015 13:57

[Quote]

Капля / The Blob-Многие с нетерпением ждут встречи с пришельцами из других миров.
Но первый контакт может оказаться не встречей братьев по разуму, а кровопролитной войной с ненасытным инопланетным монстром.
И тогда мы будем думать только о том, скольким из нас удастся остаться в живых.
- Год выпуска: 1988
Страна: США
Жанр: ужасы, фантастика
Продолжительность: 01:35:01
Перевод: Профессиональный (многоголосый закадровый) - Россия
Cубтитры: нет
Режиссер: Чак Рассел / Chuck Russell
В ролях: Кевин Диллон (Brian Flagg), Шоуни Смит (Meg Penny), Донован Лейтч мл. (Paul Taylor), Джеффри ДеМанн (Sheriff Herb Geller), Кэнди Кларк (Fran Hewitt), Джо Сенека (Dr. Meddows), Дель Клоуз (Reverend Meeker), Пол МакКрейн (Deputy Bill Briggs), Шэрон Спелман (Mrs. Penny), Биу Биллингсли (Moss Woodley)-Мировая премьера: 5 августа 1988-Описание: Роковой метеорит принес на землю страшное вещество. Жидкая плазма пожирает все на своем пути, и чем больше жертв оказывается в ее бездонных недрах, тем больше становится этот сгусток черной энергии, несущей смерть. Жители маленького американского городка не верят в страшные рассказы о дьявольской субстанции. А тем временем кровавая масса уже приближается к его окраине…-Благодарности:
- .
- собственная запись перевода с телеканала Россия в середине 2000-х годов через видеомагнитофон и оцифровка с видеокассеты.
- синхронизация перевода.-Данный перевод на трекере появляется впервые.
В переводе несколько вставок перевода REN-TV в зацензуренных диалогах, которые не были показаны.-На русский язык фильм озвучен по заказу телеканала Россия в 2004 году.
Текст читают Андрей Казанцев, Олег Вирозуб, Валерий Сторожик и Ольга Голованова.-Рейтинг

MPAA: R - Лицам до 17 лет обязательно присутствие взрослого.-Качество видео: BDRip
Формат видео: AVI -> //SAMPLE//
Видео: XviD, 704x384 (1,85:1), 23.976 fps, 1997 kbps avg
Аудио:
1 - 48 khz, AC3 Dolby Digital, 2/0 (L,R) ch, ~192 kbps [Россия] VHSRip

MediaInfo

General
Complete name : D:\Релизы на Трекере\Капля (Россия).avi
Format : AVI
Format/Info : Audio Video Interleave
File size : 1.46 GiB
Duration : 1h 35mn
Overall bit rate : 2 198 Kbps
Writing application : VirtualDubMod 1.5.10.3 | www.virtualdub-fr.org || (build 2550/release)
Writing library : VirtualDubMod build 2550/release
Video
ID : 0
Format : MPEG-4 Visual
Format profile : Advanced Simple@L5
Format settings, BVOP : 1
Format settings, QPel : No
Format settings, GMC : No warppoints
Format settings, Matrix : Custom
Codec ID : XVID
Codec ID/Hint : XviD
Duration : 1h 35mn
Bit rate : 1 997 Kbps
Width : 704 pixels
Height : 384 pixels
Display aspect ratio : 1.85:1
Frame rate : 23.976 fps
Color space : YUV
Chroma subsampling : 4:2:0
Bit depth : 8 bits
Scan type : Progressive
Compression mode : Lossy
Bits/(Pixel*Frame) : 0.308
Stream size : 1.33 GiB (91%)
Writing library : XviD 65
Audio
ID : 1
Format : AC-3
Format/Info : Audio Coding 3
Mode extension : CM (complete main)
Format settings, Endianness : Big
Codec ID : 2000
Duration : 1h 35mn
Bit rate mode : Constant
Bit rate : 192 Kbps
Channel(s) : 2 channels
Channel positions : Front: L R
Sampling rate : 48.0 KHz
Compression mode : Lossy
Stream size : 130 MiB (9%)
Alignment : Split accross interleaves
Interleave, duration : 42 ms (1.00 video frame)
Interleave, preload duratio : 500 ms

Скриншот c названием фильма

Скриншоты

To download the content you need:
1. Download and install torrent client [for Windows] or for mobile system
2. Click on [Download]
Attention.
If the test YOU are NOT a ROBOT - does not work, then You are using an outdated browser.
Install the current browser and click on [Download]

Do not work with Yandex browser. Uploading files to them is erroneous.
Security: torrent client is allowed by Kaspersky.

[en.asmlocator.ru].t4489.torrent 
Torrent: Registered [ 2015-12-01 13:55 ] · 4E73727519F21892FCADC7309BC2DECF1318FDEE

Download .torrent

Download

15 KB

Status: checked
Completed: 0 times
Size: 1.46 GB
terms.php
[Profile] [PM]
Display posts:    
Reply to topic

Current time is: 10-Apr 08:02

All times are UTC ± 0



You cannot post new topics in this forum
You cannot reply to topics in this forum
You cannot edit your posts in this forum
You cannot delete your posts in this forum
You cannot vote in polls in this forum
You cannot attach files in this forum
You can download files in this forum
Верим фактам, а не вранью Путина! Факт, что Правительство ведёт Россию к истреблению.
Так как численность населения падает, даже не смотря на приток эмигрантов!
Русская нация вымирает и вырождается, смешиваясь с эмигрантами!
Факт, что военных и граждан предприятий заставляют голосовать за партию Единая Россия и Путина
ПОД СТРАХОМ УВОЛЬНЕНИЯ!
Нам не нужно Правительство, блокирующее личную жизнь, интернет, нарушающее сохранность данных.
Все эти действия финансируются за счёт народа!