Молодость, больница, любовь 2 / Paramedics (Стюарт Марголин / Stuart Margolin) [1988, США, комедия, WEB-Rip] DVO

Reply to topic
DL-List and Torrent activity
Size:  1.37 GB   |    Registered:  4 years 4 months   |    Completed:  0 times

Seeder not seen: 1 year 1 month

 
   
 
 
Author Message

star21 ®

Gender: Female

Longevity: 4 years 4 months

Posts: 551945

Location: Екатеринбург

Post 01-Dec-2015 13:57

[Quote]

Молодость, больница, любовь 2 / Paramedics
Страна: США
Жанр: комедия
Год выпуска: 1988
Продолжительность: 01:31:33
Перевод: Профессиональный (двухголосый закадровый) EA - озв. студия СтарТрек
Cубтитры: нет
Режиссер: Стюарт Марголин / Stuart Margolin
В ролях: Джордж Ньюберн, Кристофер Макдональд, Джон П. Райан, Джеймс Ноубл, Джон Плешетт, Элейн Уилкес, Лиди Дениер, Хавьер Грайеда, Лоуренс Хилтон-Джекобс, Карен Уиттер, Рэй Уолстон, Ли Хэмилтон, Роберт ДоКи, Клифф Стивенс, Чарльз Сейберт, Джерри Коттон, Гари Картер, С. Джек Робинсон, Даг Джексон, Билл Болендер, Трэйси Леттс, Дженнифер Эванс, Венди Кларендон, Макс Мартини, Эрик Ланевийе, Джон Ф. Паркер
Описание: «Безумный» Майк и «Кокаин» Фарли — отличные парни. В борьбе за святое дело медицины они запросто могут сделать вас инвалидом, а то и отправить на тот свет! Они грубы, бесцеремонны и не любят долго раздумывать — и это еще их лучшие черты!
Когда эти раздолбаи попадают из своего благополучного зажиточного пригорода в безумие улиц Южного Центра, они оказываются в самой горячей зоне военных действий местных банд. Плохие парни затеяли грязную игру с продажей трупов. У наших докторов так и чешутся руки им помешать и преподать бандитам убедительный урок практической медицины.
Доп. информация: Благодарность:
Fikaloid - за дорожку с переводом DVO
xelon2006 - за синхрон дорожки.

Ну и мне как организатору
Релиз
Сэмпл: https://yadi.sk/i/L5Ud9ACNhXEWK
Качество видео: WEB-Rip
Формат видео: AVI
Видео: 720x544 (1.32:1), 23.976 fps, XviD build 50 ~1936 kbps avg, 0.21 bit/pixel
Аудио: 48 kHz, AC3 Dolby Digital, 2/0 (L,R) ch, ~192 kbps

MediaInfo

Молодость, больница, любовь 2 - Paramedics [by Edich2].avi
Format : AVI
Format/Info : Audio Video Interleave
File size : 1.37 GiB
Duration : 1h 31mn
Overall bit rate : 2 138 Kbps
Movie name : Молодость, больница, любовь 2 - Paramedics [by Edich2]
Director : by Edich2
Writing application : VirtualDubMod 1.5.10.3 | www.virtualdub-fr.org || (build 2550/release)
Comment : RuTracker.org
Video
ID : 0
Format : MPEG-4 Visual
Format profile : Advanced Simple@L5
Format settings, BVOP : 1
Format settings, QPel : No
Format settings, GMC : No warppoints
Format settings, Matrix : Default (MPEG)
Codec ID : XVID
Codec ID/Hint : XviD
Duration : 1h 31mn
Bit rate : 1 937 Kbps
Width : 720 pixels
Height : 544 pixels
Display aspect ratio : 4:3
Frame rate : 23.976 fps
Color space : YUV
Chroma subsampling : 4:2:0
Bit depth : 8 bits
Scan type : Progressive
Compression mode : Lossy
Bits/(Pixel*Frame) : 0.206
Stream size : 1.24 GiB (91%)
Writing library : XviD 1.2.1 (UTC 2008-12-04)
Audio
ID : 1
Format : AC-3
Format/Info : Audio Coding 3
Mode extension : CM (complete main)
Format settings, Endianness : Big
Codec ID : 2000
Duration : 1h 31mn
Bit rate mode : Constant
Bit rate : 192 Kbps
Channel(s) : 2 channels
Channel positions : Front: L R
Sampling rate : 48.0 KHz
Bit depth : 16 bits
Compression mode : Lossy
Stream size : 126 MiB (9%)
Alignment : Aligned on interleaves
Interleave, duration : 42 ms (1.00 video frame)
Interleave, preload duration : 512 ms

Скриншоты




To download the content you need:
1. Download and install torrent client [for Windows] or for mobile system
2. Click on [Download]
Attention.
If the test YOU are NOT a ROBOT - does not work, then You are using an outdated browser.
Install the current browser and click on [Download]

Do not work with Yandex browser. Uploading files to them is erroneous.
Security: torrent client is allowed by Kaspersky.

[en.asmlocator.ru].t4488.torrent 
Torrent: Registered [ 2015-12-01 13:55 ] · 3E9A285BD78479D912E9CC3FEA9CBA41D9285D72

Download .torrent

Download

14 KB

Status: checked
Completed: 0 times
Size: 1.37 GB
terms.php
[Profile] [PM]
Display posts:    
Reply to topic

Current time is: 05-Apr 03:06

All times are UTC ± 0



You cannot post new topics in this forum
You cannot reply to topics in this forum
You cannot edit your posts in this forum
You cannot delete your posts in this forum
You cannot vote in polls in this forum
You cannot attach files in this forum
You can download files in this forum
Верим фактам, а не вранью Путина! Факт, что Правительство ведёт Россию к истреблению.
Так как численность населения падает, даже не смотря на приток эмигрантов!
Русская нация вымирает и вырождается, смешиваясь с эмигрантами!
Факт, что военных и граждан предприятий заставляют голосовать за партию Единая Россия и Путина
ПОД СТРАХОМ УВОЛЬНЕНИЯ!
Нам не нужно Правительство, блокирующее личную жизнь, интернет, нарушающее сохранность данных.
Все эти действия финансируются за счёт народа!