Охотник за черепами / Охотник за головами / Headhunter (Френсис Шеффер / Francis Schaeffer) [1988, США, ЮАР, Триллер,хорор, детектив, DVDRip] AVO Дольский

Reply to topic
DL-List and Torrent activity
Size:  761 MB   |    Registered:  4 years 3 months   |    Completed:  1 time

Seeder not seen: 5 months 9 days

 
   
 
 
Author Message

star21 ®

Gender: Female

Longevity: 4 years 4 months

Posts: 551945

Location: Екатеринбург

Post 01-Dec-2015 13:57

[Quote]

Охотник за черепами / Охотник за головами / Headhunter
Страна: США, ЮАР
Жанр: Триллер ,хорор , детектив
Год выпуска: 1988
Продолжительность: 1:27:42
Перевод: Авторский (одноголосый закадровый) А. Дольский
Cубтитры: нет
Режиссер: Френсис Шеффер / Francis Schaeffer
В ролях: Вейн Кроуфорд, Кэй Ленц, Стив Кэнэли, Джун Чэдвик, Гордон Малхолланд, Сэм Уильямс, Джон Баррет
Описание: Полицейские в Майами находят трупы людей с отрезанными головами. Полицейские подозревают, что объявился убийца-маньяк. Но все серьезнее - дело в ритуальных жертвоприношениях, которые в Штаты занесло каким-то ветром из африканской Нигерии...
Доп. информация: Дорога взята и синхронизирована из раздачи alenavova
Сэмпл: https://www.sendspace.com/file/zdpn8r
Качество видео: DVDRip
Формат видео: AVI
Видео: XviD MPEG-4 , 496x368 (1.35:1) , 25.000 fps , 1010 kbps avg
Аудио: AC3 , 48 kHz , 192.00 kbps avg , 2/0 (L,R) ch

MediaInfo

omplete name Охотник за головами 1988.avi
Format : AVI
Format/Info : Audio Video Interleave
File size : 761 MiB
Duration : 1h 27mn
Overall bit rate : 1 213 Kbps
Writing application : VirtualDubMod 1.5.4.1 (build 2178/release)
Writing library : VirtualDub build 35491/release
Video
ID : 0
Format : MPEG-4 Visual
Format profile : Advanced Simple@L5
Format settings, BVOP : 1
Format settings, QPel : No
Format settings, GMC : No warppoints
Format settings, Matrix : Custom
Codec ID : XVID
Codec ID/Hint : XviD
Duration : 1h 27mn
Bit rate : 1 011 Kbps
Width : 496 pixels
Height : 368 pixels
Display aspect ratio : 4:3
Frame rate : 25.000 fps
Color space : YUV
Chroma subsampling : 4:2:0
Bit depth : 8 bits
Scan type : Progressive
Compression mode : Lossy
Bits/(Pixel*Frame) : 0.222
Stream size : 634 MiB (83%)
Writing library : XviD 1.0.0 (UTC 2004-05-09)
Audio
ID : 1
Format : AC-3
Format/Info : Audio Coding 3
Mode extension : CM (complete main)
Format settings, Endianness : Big
Codec ID : 2000
Duration : 1h 27mn
Bit rate mode : Constant
Bit rate : 192 Kbps
Channel(s) : 2 channels
Channel positions : Front: L R
Sampling rate : 48.0 KHz
Bit depth : 16 bits
Compression mode : Lossy
Stream size : 120 MiB (16%)
Alignment : Aligned on interleaves
Interleave, duration : 40 ms (1.00 video frame)
Interleave, preload duratio : 512 ms

Скриншоты

To download the content you need:
1. Download and install torrent client [for Windows] or for mobile system
2. Click on [Download]
Attention.
If the test YOU are NOT a ROBOT - does not work, then You are using an outdated browser.
Install the current browser and click on [Download]

Do not work with Yandex browser. Uploading files to them is erroneous.
Security: torrent client is allowed by Kaspersky.

[en.asmlocator.ru].t4485.torrent 
Torrent: Registered [ 2015-12-01 13:55 ] · 966D2F3213E2DAE11D7E58B39FA32B123EECFE63

Download .torrent

Download

15 KB

Status: checked
Completed: 1 times
Size: 761 MB
terms.php
[Profile] [PM]
Display posts:    
Reply to topic

Current time is: 28-Mar 23:00

All times are UTC ± 0



You cannot post new topics in this forum
You cannot reply to topics in this forum
You cannot edit your posts in this forum
You cannot delete your posts in this forum
You cannot vote in polls in this forum
You cannot attach files in this forum
You can download files in this forum
Верим фактам, а не вранью Путина! Факт, что Правительство ведёт Россию к истреблению.
Так как численность населения падает, даже не смотря на приток эмигрантов!
Русская нация вымирает и вырождается, смешиваясь с эмигрантами!
Факт, что военных и граждан предприятий заставляют голосовать за партию Единая Россия и Путина
ПОД СТРАХОМ УВОЛЬНЕНИЯ!
Нам не нужно Правительство, блокирующее личную жизнь, интернет, нарушающее сохранность данных.
Все эти действия финансируются за счёт народа!