Маньяк-полицейский 2 / Maniac Cop 2 (Уильям Лустиг / William Lustig) [1990, США, ужасы, боевик, HDRip] AVO (Василий Горчаков)

Reply to topic
DL-List and Torrent activity
Size:  1.43 GB   |    Registered:  4 years 4 months   |    Completed:  0 times

Seeder not seen: Never

 
   
 
 
Author Message

star21 ®

Gender: Female

Longevity: 4 years 5 months

Posts: 551945

Location: Екатеринбург

Post 01-Dec-2015 13:57

[Quote]

Маньяк-полицейский 2 / Maniac Cop 2
Страна: США
Жанр: ужасы, боевик
Год выпуска: 1990
Продолжительность: 01:27:22
Перевод: Авторский (одноголосый закадровый) Василий Горчаков
Cубтитры: нет
Оригинальная аудиодорожка: нет
Режиссер: Уильям Лустиг / William Lustig
В ролях: Роберт Дави, Клаудия Кристиан, Майкл Лернер, Брюс Кэмпбелл, Лаурен Лэндон, Роберт З’Дар, Кларенс Уильямс III
Описание: Все думают, что Мэтт Корделл утонул в пучинах реки, куда он упал в полицейском грузовике, но они жестоко ошибаются. Мэтт сам назначил себя судьей, жюри присяжных и палачом. Совсем недавно он был героем, лучшим полицейским, но его приверженность к справедливости добавила ему врагов, властных и безжалостных, могущественных и непримиримых. Они отправили его в тюрьму Синг-Синг прямо в лапы злых преступников, которых он сам недавно засадил за решетку. Но теперь их обман и коррупция создали монстра, которого не может контролировать никто. Восставший из мертвых маньяк-полицейский снова на посту и единственный билет, который он выписывает- это билет в морг…
Доп. информация:
Видеоряд взят из этой раздачи , за которую благодарим edich2.
За звуковую дорожку с переводом В. Горчакова большое спасибо Kino-profan.
За синхронизацию звуковой дороги и работу со звуком, в т.ч. восстановление правильного тона переводчика, огромная благодарность ale_x2008.
Сэмпл: https://www.sendspace.com/file/gadcl8
Качество видео: HDRip
Формат видео: AVI
Видео: 720x384, 23.976 fps, MPEG-4 Visual, 2150 Kbps, XviD 1.2.1
Аудио: 48 KHz, AC3, 2 ch (stereo), 192 Kbps

MediaInfo

General
Complete name : C:\Users\Сергей\Downloads\Маньяк-полицейский 2.avi
Format : AVI
Format/Info : Audio Video Interleave
File size : 1.43 GiB
Duration : 1h 27mn
Overall bit rate : 2 351 Kbps
Movie name : Маньяк-полицейский 2 - Maniac Cop 2 [Rip by Edich2]
Director : Rip by Edich2
Writing application : VirtualDubMod 1.5.10.3 (build 2550/release)
Writing library : VirtualDubMod build 2550/release
Comment : RuTracker.org
Video
ID : 0
Format : MPEG-4 Visual
Format profile : Advanced Simple@L5
Format settings, BVOP : 2
Format settings, QPel : No
Format settings, GMC : No warppoints
Format settings, Matrix : Custom
Codec ID : XVID
Codec ID/Hint : XviD
Duration : 1h 27mn
Bit rate : 2 150 Kbps
Width : 720 pixels
Height : 384 pixels
Display aspect ratio : 1.85:1
Frame rate : 23.976 fps
Color space : YUV
Chroma subsampling : 4:2:0
Bit depth : 8 bits
Scan type : Progressive
Compression mode : Lossy
Bits/(Pixel*Frame) : 0.324
Stream size : 1.31 GiB (91%)
Writing library : XviD 1.2.1 (UTC 2008-12-04)
Audio
ID : 1
Format : AC-3
Format/Info : Audio Coding 3
Mode extension : CM (complete main)
Format settings, Endianness : Big
Codec ID : 2000
Duration : 1h 27mn
Bit rate mode : Constant
Bit rate : 192 Kbps
Channel(s) : 2 channels
Channel positions : Front: L R
Sampling rate : 48.0 KHz
Bit depth : 16 bits
Compression mode : Lossy
Stream size : 120 MiB (8%)
Alignment : Split accross interleaves
Interleave, duration : 42 ms (1.00 video frame)
Interleave, preload duration : 500 ms

Скриншоты

To download the content you need:
1. Download and install torrent client [for Windows] or for mobile system
2. Click on [Download]
Attention.
If the test YOU are NOT a ROBOT - does not work, then You are using an outdated browser.
Install the current browser and click on [Download]

Do not work with Yandex browser. Uploading files to them is erroneous.
Security: torrent client is allowed by Kaspersky.

[en.asmlocator.ru].t4483.torrent 
Torrent: Registered [ 2015-12-01 13:55 ] · 614B0B56E33ED1D43201D58283782469995777A3

Download .torrent

Download

15 KB

Status: checked
Completed: 0 times
Size: 1.43 GB
terms.php
[Profile] [PM]
Display posts:    
Reply to topic

Current time is: 08-Apr 02:12

All times are UTC ± 0



You cannot post new topics in this forum
You cannot reply to topics in this forum
You cannot edit your posts in this forum
You cannot delete your posts in this forum
You cannot vote in polls in this forum
You cannot attach files in this forum
You can download files in this forum
Верим фактам, а не вранью Путина! Факт, что Правительство ведёт Россию к истреблению.
Так как численность населения падает, даже не смотря на приток эмигрантов!
Русская нация вымирает и вырождается, смешиваясь с эмигрантами!
Факт, что военных и граждан предприятий заставляют голосовать за партию Единая Россия и Путина
ПОД СТРАХОМ УВОЛЬНЕНИЯ!
Нам не нужно Правительство, блокирующее личную жизнь, интернет, нарушающее сохранность данных.
Все эти действия финансируются за счёт народа!