Американский ниндзя 2: Схватка / American Ninja 2: The Confrontation (Сэм Фёрстенберг / Sam Firstenberg) [1987, США, боевик, драма, BDRip] MVO (СТС) + Original (Eng)

Reply to topic
DL-List and Torrent activity
Size:  1.46 GB   |    Registered:  4 years 4 months   |    Completed:  0 times

Seeder not seen: Never

 
   
 
 
Author Message

star21 ®

Gender: Female

Longevity: 4 years 4 months

Posts: 551945

Location: Екатеринбург

Post 01-Dec-2015 13:57

[Quote]

Американский ниндзя 2: Схватка / American Ninja 2: The Confrontation- Страна: США
Жанр: боевик, драма
Год выпуска: 1987
Продолжительность: 01:29:41
Перевод: Профессиональный (многоголосый закадровый) СТС
Cубтитры: нет
Оригинальная звуковая дорожка [English]-Режиссер: Сэм Фёрстенберг / Sam Firstenberg
Сценарий: Гэри Конуэй / Gary Conway
Продюсер: Йорам Глобус / Yoram Globus
Оператор: Гидеон Порат / Gideon Porath-В ролях:
Майкл Дудикофф (Sgt. Joe Armstrong), Стив Джеймс (Sgt. Curtis Jackson), Ларри Поиндекстер (Sgt. Charlie McDonald), Гэри Конуэй (Leo «The Lion» Burke), Джефф Челентано (Capt. «Wild Bill» Woodward), Мишель Боутс (Alicia Sanborn), Майк Стоун (Tojo Ken), Лен Спэрроухок (Pat McCarthy), Джонатан Пиенаар (Tommy Taylor), Билл Керри (Inspector Singh).-Описание:
Действие происходит на острове Святого Томаса в Карибском море, куда американский наемник Джо Армстронг и сержант Кертис Джексон прибывают для расследования таинственного исчезновения группы морских пехотинцев. Очень скоро они натыкаются на следы чудовищной операции с наркотиками, руководимой могущественным наркодилером по прозвищу Лев. Он похитил пехотинцев, чтобы с помощью генетики создать из них бойцов - ниндзя. Пара искателей приключений, на помощь к которым приходит дочь местного ученого Алисия Санборн, сражаются со Львом и его армией ниндзя, чтобы навсегда разрушить его дьявольскую империю.-Бюджет: $350 000
Сборы в США: $4 000 000-Мировая премьера: 1 мая 1987
-Рейтинг
kinopoisk.ru: 5.832 (1589)
imdb.com: 4.60 (5383)

MPAA: - Детям до 17 лет обязательно присутствие родителей-Качество видео: -Rip | thx: ☞ rainbow.n
Формат видео: AVI ///СОВМЕСТИМО С БЫТОВЫМИ ПЛЕЕРАМИ///→ //SAMPLE//
Видео: 704x384 (1.83:1), 23.976 fps, XviD build 66 ~1934 kbps avg, 0.30 bit/pixel
Аудио#1: 48.0 kHz, AC3 Dolby Digital, 2/0 (L,R) ch, ~192 kbps | MVO
Аудио#2: 48.0 kHz, AC3 Dolby Digital, 2/0 (L,R) ch, ~192 kbps | ENG
Размер: 1496.93 Mb (1/3 DVDR)
-

MediaInfo

Общее
Полное имя : D:\Фильмы\American Ninja 2 The Confrontation.1987.BD-Rip.XviD.1,46Gb.AC3.avi
Формат : AVI
Формат/Информация : Audio Video Interleave
Размер файла : 1,46 Гбайт
Продолжительность : 1 ч. 29 м.
Общий поток : 2333 Кбит/сек
Программа кодирования : VirtualDubMod 1.5.10.3 | www.virtualdub-fr.org || (build 2550/release)
Библиотека кодирования : VirtualDubMod build 2550/release
Видео
Идентификатор : 0
Формат : MPEG-4 Visual
Профиль формата : Advanced Simple@L5
Параметр BVOP формата : 1
Параметр QPel формата : Нет
Параметр GMC формата : Без точки перехода
Параметр матрицы формата : Выборочная
Идентификатор кодека : XVID
Идентификатор кодека/Подсказка : XviD
Продолжительность : 1 ч. 29 м.
Битрейт : 1935 Кбит/сек
Ширина : 704 пикселя
Высота : 384 пикселя
Соотношение сторон : 1,85:1
Частота кадров : 23,976 кадра/сек
Цветовое пространство : YUV
Субдискретизация насыщенности : 4:2:0
Битовая глубина : 8 бит
Тип развёртки : Прогрессивная
Метод сжатия : С потерями
Бит/(Пиксели*Кадры) : 0.299
Размер потока : 1,21 Гбайт (83%)
Библиотека кодирования : XviD 66
Аудио #1
Идентификатор : 1
Формат : AC-3
Формат/Информация : Audio Coding 3
Расширение режима : CM (complete main)
Параметр Endianness формата : Big
Идентификатор кодека : 2000
Продолжительность : 1 ч. 29 м.
Вид битрейта : Постоянный
Битрейт : 192 Кбит/сек
Каналы : 2 канала
Расположение каналов : Front: L R
Частота : 48,0 КГц
Битовая глубина : 16 бит
Метод сжатия : С потерями
Размер потока : 123 Мбайт (8%)
Выравнивание : Разделение по промежуткам
Продолжительность промежутка : 42 мс. (1,00 видеокадр)
Время предзагрузки промежутка : 500 мс.
Аудио #2
Идентификатор : 2
Формат : AC-3
Формат/Информация : Audio Coding 3
Расширение режима : CM (complete main)
Параметр Endianness формата : Big
Идентификатор кодека : 2000
Продолжительность : 1 ч. 29 м.
Вид битрейта : Постоянный
Битрейт : 192 Кбит/сек
Каналы : 2 канала
Расположение каналов : Front: L R
Частота : 48,0 КГц
Битовая глубина : 16 бит
Метод сжатия : С потерями
Размер потока : 123 Мбайт (8%)
Выравнивание : Разделение по промежуткам
Продолжительность промежутка : 42 мс. (1,00 видеокадр)
Время предзагрузки промежутка : 500 мс.

Скриншот c названием фильма

Скриншоты

  • За запись дороги СТС с (ТВ) спасибо « miha2154 »-
  • За сборку ремукса спасибо « ilgizik01 »

To download the content you need:
1. Download and install torrent client [for Windows] or for mobile system
2. Click on [Download]
Attention.
If the test YOU are NOT a ROBOT - does not work, then You are using an outdated browser.
Install the current browser and click on [Download]

Do not work with Yandex browser. Uploading files to them is erroneous.
Security: torrent client is allowed by Kaspersky.

[en.asmlocator.ru].t4482.torrent 
Torrent: Registered [ 2015-12-01 13:55 ] · 1042A18FD2DF9A698C471E54FC7B313EA6266E54

Download .torrent

Download

15 KB

Status: checked
Completed: 0 times
Size: 1.46 GB
terms.php
[Profile] [PM]
Display posts:    
Reply to topic

Current time is: 03-Apr 04:45

All times are UTC ± 0



You cannot post new topics in this forum
You cannot reply to topics in this forum
You cannot edit your posts in this forum
You cannot delete your posts in this forum
You cannot vote in polls in this forum
You cannot attach files in this forum
You can download files in this forum
Верим фактам, а не вранью Путина! Факт, что Правительство ведёт Россию к истреблению.
Так как численность населения падает, даже не смотря на приток эмигрантов!
Русская нация вымирает и вырождается, смешиваясь с эмигрантами!
Факт, что военных и граждан предприятий заставляют голосовать за партию Единая Россия и Путина
ПОД СТРАХОМ УВОЛЬНЕНИЯ!
Нам не нужно Правительство, блокирующее личную жизнь, интернет, нарушающее сохранность данных.
Все эти действия финансируются за счёт народа!