Я люблю тебя до смерти / I Love You to Death (Лоуренс Кэздан / Lawrence Kasdan) [1990, США, Комедия, WEB-DLRip] MVO + Dub + DVO + AVO

Reply to topic
DL-List and Torrent activity
Size:  1.85 GB   |    Registered:  4 years 3 months   |    Completed:  0 times

Seeder not seen: Never

 
   
 
 
Author Message

star21 ®

Gender: Female

Longevity: 4 years 4 months

Posts: 551945

Location: Екатеринбург

Post 01-Dec-2015 13:57

[Quote]

Я люблю тебя до смерти / I Love You to Death«With These People Trying To Kill Him, Joey Boca May Just Live Forever»- Страна: США
Жанр: Комедия
Год выпуска: 1990
Продолжительность: 01:37:12-Перевод 1: Профессиональный (многоголосый закадровый) [ТВ5 (Санкт-Петербург)]
Перевод 2: Профессиональный (дублированный) [Варус Видео_VHS] - отдельно
Перевод 3: Профессиональный (двухголосый закадровый) [Видеофильм Интернэшнл] - отдельно
Перевод 4: Авторский (одноголосый закадровый) [Михаил Иванов] - отдельно
Cубтитры: нет-Режиссер: Лоуренс Кэздан / Lawrence Kasdan-В ролях: Кевин Клайн, Трейси Ульман, Джоан Плаурайт, Ривер Феникс, Уильям Херт, Киану Ривз, Виктория Джексон, Мириам Маргулис, Элисан Портер, Джон Кэздан-Описание: Если бывшая любовь не умирает, можно позвать на помощь киллеров? Узнав, что ее муж Джоуи давно и усердно ей изменяет, ревнивая Розали Бока решила, что, как настоящая католичка, непременно должна отправить супруга за такие шалости на тот свет. Но полная некомпетентность в теории душегубства встает непреодолимым препятствием ее планам. "Доморощенные" попытки убийства проваливаются одна за другой самым анекдотичным образом, и тогда раздосадованная Розали решает нанять профессионалов. Однако даже профи готовы спасовать перед поразительной везучестью супруга. Похоже, песню этого живучего гуляки не задушишь, не убьешь!..-Sample | [imdb]http://www.imdb.com/title/tt0099819[/imdb] | КиноПоиск-Тип релиза: WEB-DLRip [исх. спасибо ]
Формат видео: AVI-Видео: 720x400 (1.80:1), 23.976 fps, XviD build 50, 1953 kbps avg, 0.28 bit/pixel
Аудио 1: 48 kHz, AC3 Dolby Digital, 2/0 (L,R) ch, 192.00 kbps avg [Russian_MVO]
Аудио 2: 48 kHz, AC3 Dolby Digital, 2/0 (L,R) ch, 192.00 kbps avg [Russian_Dub] - отдельно
Аудио 3: 48 kHz, AC3 Dolby Digital, 2/0 (L,R) ch, 192.00 kbps avg [Russian_DVO] - отдельно
Аудио 4: 48 kHz, AC3 Dolby Digital, 2/0 (L,R) ch, 192.00 kbps avg [Russian_AVO] - отдельно-Релиз группы:-

MediaInfo

General
Complete name : D:\Мои релизы\I Love You to Death_WEB-DLRip_RG_All_Films\I Love You to Death_WEB-DLRip_RG_All_Films.avi
Format : AVI
Format/Info : Audio Video Interleave
File size : 1.46 GiB
Duration : 1h 37mn
Overall bit rate : 2 155 Kbps
Writing application : VirtualDubMod 1.5.10.3 | www.virtualdub-fr.org || (build 2550/release)
Writing library : VirtualDubMod build 2550/release
Video
ID : 0
Format : MPEG-4 Visual
Format profile : Advanced Simple@L5
Format settings, BVOP : Yes
Format settings, QPel : No
Format settings, GMC : No warppoints
Format settings, Matrix : Custom
Codec ID : XVID
Codec ID/Hint : XviD
Duration : 1h 37mn
Bit rate : 1 954 Kbps
Width : 720 pixels
Height : 400 pixels
Display aspect ratio : 16:9
Frame rate : 23.976 fps
Color space : YUV
Chroma subsampling : 4:2:0
Bit depth : 8 bits
Scan type : Progressive
Compression mode : Lossy
Bits/(Pixel*Frame) : 0.283
Stream size : 1.33 GiB (91%)
Writing library : XviD 1.2.1 (UTC 2008-12-04)
Audio
ID : 1
Format : AC-3
Format/Info : Audio Coding 3
Mode extension : CM (complete main)
Codec ID : 2000
Duration : 1h 37mn
Bit rate mode : Constant
Bit rate : 192 Kbps
Channel(s) : 2 channels
Channel positions : Front: L R
Sampling rate : 48.0 KHz
Bit depth : 16 bits
Compression mode : Lossy
Stream size : 133 MiB (9%)
Alignment : Split accross interleaves
Interleave, duration : 42 ms (1.00 video frame)
Interleave, preload duration : 500 ms
Audio 2 (отдельно)
Format : AC-3
Format/Info : Audio Coding 3
Mode extension : CM (complete main)
Duration : 1h 37mn
Bit rate mode : Constant
Bit rate : 192 Kbps
Channel(s) : 2 channels
Channel positions : Front: L R
Sampling rate : 48.0 KHz
Bit depth : 16 bits
Compression mode : Lossy
Stream size : 133 MiB (100%)
Audio 3 (отдельно)
Format : AC-3
Format/Info : Audio Coding 3
Mode extension : CM (complete main)
Duration : 1h 37mn
Bit rate mode : Constant
Bit rate : 192 Kbps
Channel(s) : 2 channels
Channel positions : Front: L R
Sampling rate : 48.0 KHz
Bit depth : 16 bits
Compression mode : Lossy
Stream size : 133 MiB (100%)
Audio 4 (отдельно)
Format : AC-3
Format/Info : Audio Coding 3
Mode extension : CM (complete main)
Duration : 1h 37mn
Bit rate mode : Constant
Bit rate : 192 Kbps
Channel(s) : 2 channels
Channel positions : Front: L R
Sampling rate : 48.0 KHz
Bit depth : 16 bits
Compression mode : Lossy
Stream size : 133 MiB (100%)

Скриншоты

To download the content you need:
1. Download and install torrent client [for Windows] or for mobile system
2. Click on [Download]
Attention.
If the test YOU are NOT a ROBOT - does not work, then You are using an outdated browser.
Install the current browser and click on [Download]

Do not work with Yandex browser. Uploading files to them is erroneous.
Security: torrent client is allowed by Kaspersky.

[en.asmlocator.ru].t4480.torrent 
Torrent: Registered [ 2015-12-01 13:55 ] · FEA925C569CBA39BE06386F2BEE91B0176024A4E

Download .torrent

Download

19 KB

Status: checked
Completed: 0 times
Size: 1.85 GB
terms.php
[Profile] [PM]
Display posts:    
Reply to topic

Current time is: 31-Mar 15:38

All times are UTC ± 0



You cannot post new topics in this forum
You cannot reply to topics in this forum
You cannot edit your posts in this forum
You cannot delete your posts in this forum
You cannot vote in polls in this forum
You cannot attach files in this forum
You can download files in this forum
Верим фактам, а не вранью Путина! Факт, что Правительство ведёт Россию к истреблению.
Так как численность населения падает, даже не смотря на приток эмигрантов!
Русская нация вымирает и вырождается, смешиваясь с эмигрантами!
Факт, что военных и граждан предприятий заставляют голосовать за партию Единая Россия и Путина
ПОД СТРАХОМ УВОЛЬНЕНИЯ!
Нам не нужно Правительство, блокирующее личную жизнь, интернет, нарушающее сохранность данных.
Все эти действия финансируются за счёт народа!