Американский ниндзя 4: Полное уничтожение / American Ninja 4: The Annihilation (Седрик Сандстром / Cedric Sundstrom) [1990, США, боевик, DVDRip] AVO (Немахов) + AVO (Марченко)

Reply to topic
DL-List and Torrent activity
Size:  1.59 GB   |    Registered:  4 years 3 months   |    Completed:  0 times

Seeder not seen: Never

 
   
 
 
Author Message

star21 ®

Gender: Female

Longevity: 4 years 4 months

Posts: 551945

Location: Екатеринбург

Post 01-Dec-2015 13:57

[Quote]

Американский ниндзя 4: Полное уничтожение / American Ninja 4: The Annihilation
Страна: США
Жанр: боевик
Год выпуска: 1990
Продолжительность: 01:39:17
Перевод: Авторский (одноголосый закадровый) - Юрий Немахов
Перевод: Авторский (одноголосый закадровый) - Александр Марченко
Cубтитры: нет

Режиссер: Седрик Сандстром / Cedric Sundstrom
В ролях: Майкл Дудикофф, Дэвид Брэдли, Джеймс Бут, Дуэйн Александер, Кен Гэмпу, Робин Стилл, Франц Добровски, Рон Смержак, Кели МакКланг
Описание: Бывший полковник, садист и убийца, тренирует террористов и ниндзя шейха из какого-то арабского государства, задумавшего взорвать Нью-Йорк при помощи изготовленной в тайной лаборатории миниатюрной атомной бомбы. Команда подразделения «Дельта», посланная уничтожить злодеев, потерпела поражение, а оставшиеся в живых стали заложниками. Полицейского-ниндзю вместе с напарником посылают с заданием обезвредить маньяков. В самый тяжелый момент к нашим героям присоединится самый первый и главный американский ниндзя. Вместе они разносят на куски целую армию ниндзя и прочих бандитов.
Качество видео:
Формат видео: AVI
Видео: 640x480 (1.33:1), 23.976 fps, XviD build 73 ~1897 kbps avg, 0.26 bit/pixel
Аудио: 48 kHz, AC3 Dolby Digital, 2/0 (L,R) ch, ~192 kbps - Немахов
Аудио: 48 kHz, AC3 Dolby Digital, 2/0 (L,R) ch, ~192 kbps - Марченко (отдельным файлом)

MediaInfo

Общее
Полное имя : H:\American.Ninja.4_The.Annihilation.1991.dvdrip_[1.46]_[teko]\American.Ninja.4_The.Annihilation.1991.dvdrip_[1.46].avi
Формат : AVI
Формат/Информация : Audio Video Interleave
Размер файла : 1,46 Гбайт
Продолжительность : 1 ч. 39 м.
Общий поток : 2099 Кбит/сек
Программа кодирования : VirtualDubMod 1.5.10.3 | www.virtualdub-fr.org || (build 2550/release)
Библиотека кодирования : VirtualDubMod build 2550/release
Видео
Идентификатор : 0
Формат : MPEG-4 Visual
Профиль формата : Advanced Simple@L5
Параметр BVOP формата : 1
Параметр QPel формата : Нет
Параметр GMC формата : Без точки перехода
Параметр матрицы формата : Выборочная
Идентификатор кодека : XVID
Идентификатор кодека/Подсказка : XviD
Продолжительность : 1 ч. 39 м.
Битрейт : 1898 Кбит/сек
Ширина : 640 пикселей
Высота : 480 пикселей
Соотношение сторон : 4:3
Частота кадров : 23,976 кадра/сек
Цветовое пространство : YUV
Субдискретизация насыщенности : 4:2:0
Битовая глубина : 8 бит
Тип развёртки : Прогрессивная
Метод сжатия : С потерями
Бит/(Пиксели*Кадры) : 0.258
Размер потока : 1,32 Гбайт (90%)
Библиотека кодирования : XviD 73
Аудио
Идентификатор : 1
Формат : AC-3
Формат/Информация : Audio Coding 3
Расширение режима : CM (complete main)
Параметр Endianness формата : Big
Идентификатор кодека : 2000
Продолжительность : 1 ч. 39 м.
Вид битрейта : Постоянный
Битрейт : 192 Кбит/сек
Каналы : 2 канала
Расположение каналов : Front: L R
Частота : 48,0 КГц
Битовая глубина : 16 бит
Метод сжатия : С потерями
Размер потока : 136 Мбайт (9%)
Выравнивание : Разделение по промежуткам
Продолжительность промежутка : 42 мс. (1,00 видеокадр)
Время предзагрузки промежутка : 500 мс.
Релиз группы:
-
-

To download the content you need:
1. Download and install torrent client [for Windows] or for mobile system
2. Click on [Download]
Attention.
If the test YOU are NOT a ROBOT - does not work, then You are using an outdated browser.
Install the current browser and click on [Download]

Do not work with Yandex browser. Uploading files to them is erroneous.
Security: torrent client is allowed by Kaspersky.

[en.asmlocator.ru].t4477.torrent 
Torrent: Registered [ 2015-12-01 13:55 ] · 13DE4FB2B1C3088ABF8745E309A0933178B90B0D

Download .torrent

Download

17 KB

Status: checked
Completed: 0 times
Size: 1.59 GB
terms.php
[Profile] [PM]
Display posts:    
Reply to topic

Current time is: 29-Mar 18:29

All times are UTC ± 0



You cannot post new topics in this forum
You cannot reply to topics in this forum
You cannot edit your posts in this forum
You cannot delete your posts in this forum
You cannot vote in polls in this forum
You cannot attach files in this forum
You can download files in this forum
Верим фактам, а не вранью Путина! Факт, что Правительство ведёт Россию к истреблению.
Так как численность населения падает, даже не смотря на приток эмигрантов!
Русская нация вымирает и вырождается, смешиваясь с эмигрантами!
Факт, что военных и граждан предприятий заставляют голосовать за партию Единая Россия и Путина
ПОД СТРАХОМ УВОЛЬНЕНИЯ!
Нам не нужно Правительство, блокирующее личную жизнь, интернет, нарушающее сохранность данных.
Все эти действия финансируются за счёт народа!