Женщина французского лейтенанта / The French Lieutenant\'s Woman (Карел Рейш / Karel Reisz) [1981, Великобритания, Драма, мелодрама, HDRip] Dub (студия Кириллица) + DVO (НТВ)

Reply to topic
DL-List and Torrent activity
Size:  2.18 GB   |    Registered:  4 years 4 months   |    Completed:  0 times

Seeder not seen: Never

 
   
 
 
Author Message

star21 ®

Gender: Female

Longevity: 4 years 4 months

Posts: 551945

Location: Екатеринбург

Post 01-Dec-2015 13:57

[Quote]

Женщина французского лейтенанта / The French Lieutenant's Woman
Страна: Великобритания
Жанр: Драма, мелодрама
Год выпуска: 1981
Продолжительность: 01:58:45
Перевод: Профессиональный (дублированный) студия Кириллица
Перевод: Профессиональный (двухголосый закадровый) НТВ
Cубтитры: Нет
Оригинальная аудиодорожка: Нет
Режиссер: Карел Рейш / Karel Reisz
В ролях: Мэрил Стрип, Джереми Айронс, Хилтон МакРэй, Эмили Морган, Шарлотта Митчелл, Линси Бэкстер, Джин Фолдс, Питер Вон, Колин Дживонс, Лиз Смит.
Описание: Фильм основан на романе известного писателя Джона Фаулза. Эта история произошла в 19 веке в Англии. Чарльз Смитсон, богатый и молодой биолог, помолвлен с девушкой. Сара Вудрафф — падшая женщина, отвергнутая всеми. Человек из высшего света и женщина, изгнанная из него. Что может сблизить этих людей? Только внезапно вспыхнувшая страсть… Но Сара бросает Чарльза.
Параллельно с этим развивается другая история. Анна и Майк, молодые актеры, играющие Сару и Чарльза, настолько вживаются в свои роли, что не замечают, как персонажи начинают изменять их собственные судьбы.
Доп. информация: Исходник замена дубляжа Варус Видео на дубляж Криллицы и оригинал на НТВ мужские роли озвучивал Алексей Инжеватов.
Сэмпл: http://multi-up.com/1056650, http://rusfolder.com/43888128
Качество видео: HDRip
Формат видео: AVI
Видео: 720x384 (1.88:1), 25 fps, XviD build 65 ~2239 kbps
Аудио: 48 kHz, AC3 Dolby Digital, 2/0 (L,R) ch, ~192 kbps Кириллица
Аудио: 48 kHz, AC3 Dolby Digital, 2/0 (L,R) ch, ~192 kbps НТВ

MediaInfo

Общее
Полное имя : D:\Женщина французского лейтенанта (The French Lieutenant's Woman) [1981] .avi
Формат : AVI
Формат/Информация : Audio Video Interleave
Профиль формата : OpenDML
Размер файла : 2,18 Гбайт
Продолжительность : 1 ч. 58 м.
Общий поток : 2631 Кбит/сек
Программа кодирования : VirtualDubMod 1.5.4.1 (build 2178/release)
Видео
Идентификатор : 0
Формат : MPEG-4 Visual
Профиль формата : Advanced Simple@L5
Параметр BVOP формата : 2
Параметр QPel формата : Нет
Параметр GMC формата : Без точки перехода
Параметр матрицы формата : Выборочная
Идентификатор кодека : XVID
Идентификатор кодека/Подсказка : XviD
Продолжительность : 1 ч. 58 м.
Битрейт : 2228 Кбит/сек
Ширина : 720 пикселей
Высота : 384 пикселя
Соотношение сторон : 1,85:1
Частота кадров : 25,000 кадров/сек
Цветовое пространство : YUV
Субдискретизация насыщенности : 4:2:0
Битовая глубина : 8 бит
Тип развёртки : Прогрессивная
Метод сжатия : С потерями
Бит/(Пиксели*Кадры) : 0.322
Размер потока : 1,85 Гбайт (85%)
Библиотека кодирования : XviD 65
Аудио #1
Идентификатор : 1
Формат : AC-3
Формат/Информация : Audio Coding 3
Расширение режима : CM (complete main)
Параметр Endianness формата : Big
Идентификатор кодека : 2000
Продолжительность : 1 ч. 58 м.
Вид битрейта : Постоянный
Битрейт : 192 Кбит/сек
Каналы : 2 канала
Расположение каналов : Front: L R
Частота : 48,0 КГц
Битовая глубина : 16 бит
Метод сжатия : С потерями
Размер потока : 163 Мбайт (7%)
Выравнивание : Разделение по промежуткам
Продолжительность промежутка : 40 мс. (1,00 видеокадр)
Время предзагрузки промежутка : 500 мс.
Аудио #2
Идентификатор : 2
Формат : AC-3
Формат/Информация : Audio Coding 3
Расширение режима : CM (complete main)
Параметр Endianness формата : Big
Идентификатор кодека : 2000
Продолжительность : 1 ч. 58 м.
Вид битрейта : Постоянный
Битрейт : 192 Кбит/сек
Каналы : 2 канала
Расположение каналов : Front: L R
Частота : 48,0 КГц
Битовая глубина : 16 бит
Метод сжатия : С потерями
Размер потока : 163 Мбайт (7%)
Выравнивание : Разделение по промежуткам
Продолжительность промежутка : 40 мс. (1,00 видеокадр)
Время предзагрузки промежутка : 500 мс.

AviInfo

File: Женщина французского лейтенанта (The French Lieutenant's Woman) [1981] .avi
FileSize: 2234.66 Mb ( 2 343 208 960 bytes )
Play length: 01:58:45.319 (178133 frames)
Subtitles: Not Present
Video: 720x384 (1.88:1), 25 fps, XviD build 65 ~2239 kbps avg, 0.32 bit/pixel
Audio #1: 48 kHz, AC3 Dolby Digital, 2/0 (L,R) ch, ~192 kbps
Audio #2: 48 kHz, AC3 Dolby Digital, 2/0 (L,R) ch, ~192 kbps

Скриншот c названием фильма

Скриншоты

To download the content you need:
1. Download and install torrent client [for Windows] or for mobile system
2. Click on [Download]
Attention.
If the test YOU are NOT a ROBOT - does not work, then You are using an outdated browser.
Install the current browser and click on [Download]

Do not work with Yandex browser. Uploading files to them is erroneous.
Security: torrent client is allowed by Kaspersky.

[en.asmlocator.ru].t4475.torrent 
Torrent: Registered [ 2015-12-01 13:55 ] · 0348B487DA124BA110C13DEE650108AA5B478A45

Download .torrent

Download

11 KB

Status: checked
Completed: 0 times
Size: 2.18 GB
terms.php
[Profile] [PM]
Display posts:    
Reply to topic

Current time is: 03-Apr 10:00

All times are UTC ± 0



You cannot post new topics in this forum
You cannot reply to topics in this forum
You cannot edit your posts in this forum
You cannot delete your posts in this forum
You cannot vote in polls in this forum
You cannot attach files in this forum
You can download files in this forum
Верим фактам, а не вранью Путина! Факт, что Правительство ведёт Россию к истреблению.
Так как численность населения падает, даже не смотря на приток эмигрантов!
Русская нация вымирает и вырождается, смешиваясь с эмигрантами!
Факт, что военных и граждан предприятий заставляют голосовать за партию Единая Россия и Путина
ПОД СТРАХОМ УВОЛЬНЕНИЯ!
Нам не нужно Правительство, блокирующее личную жизнь, интернет, нарушающее сохранность данных.
Все эти действия финансируются за счёт народа!