Пещерная Девушка / Cavegirl (Дэвид Оливер / David Oliver) [1985, США, мелодрама, комедия, DVDRip] MVO (Варус Видео)

Reply to topic
DL-List and Torrent activity
Size:  1.37 GB   |    Registered:  4 years 4 months   |    Completed:  0 times

Seeder not seen: 1 year 9 months

 
   
 
 
Author Message

star21 ®

Gender: Female

Longevity: 4 years 5 months

Posts: 551945

Location: Екатеринбург

Post 01-Dec-2015 13:57

[Quote]

Пещерная Девушка / Cavegirl
Год выпуска: 1985
Страна: США
Жанр: мелодрама, комедия
Продолжительность: 01:21:25
Перевод: Профессиональный (многоголосый закадровый) - Варус Видео
Cубтитры: нет
Режиссер: Дэвид Оливер / David Oliver
В ролях: Дэниел Робак (Rex), Синтия Томпсон (Eba), Даррен Янг (Dar), Саба Моор (Saba), Синтия Рулло (Aka), Том Хэмил (Casey), Билл Адамс (Bill), Крис Ноубл (Hank), Сидни Кинг (Karen), Стэйси Кью (Brenda)-Мировая премьера: 14 октября 1988-Описание: Молодой парень в ходе эксперимента случайно попадает в далекое прошлое, первобытные времена. Он встречает древних людей, живет с ними первозданной жизнью. И влюбляется в девушку из этого племени. Там, в древности ему хорошо и возвращаться назад не хочется.-Исходник видео: из СГ.-Благодарности:
- оцифровка перевода со своей собственной лицензионной видеокассеты от видео-компании Варус Видео.
- синхронизация перевода.-Данный фильм вместе с русским переводом на трекере появляется впервые.
На русский язык фильм озвучен на студии Варус Видео.
Текст читают Игорь Тарадайкин, Вячеслав Баранов, Дмитрий Полонский, Александр Стариков, Елена Соловьёва, Виктор Рождественский и Марина Устименко.-Рейтинг

MPAA: R - Лицам до 17 лет обязательно присутствие взрослого.-Качество видео: DVDRip
Формат видео: AVI -> //SAMPLE//
Видео: XviD, 720x416 (1,731), 25.000 fps, 2206 kbps avg
Аудио:
1 - 48 khz, AC3 Dolby Digital, 2/0 (L,R) ch, ~192 kbps [Варус Видео] VHSRip

MediaInfo

General
Complete name : D:\Релизы на Трекере\Пещерная Девушка (Варус Видео).avi
Format : AVI
Format/Info : Audio Video Interleave
File size : 1.37 GiB
Duration : 1h 21mn
Overall bit rate : 2 408 Kbps
Writing application : VirtualDubMod 1.5.10.3 | www.virtualdub-fr.org || (build 2550/release)
Writing library : VirtualDubMod build 2550/release
Video
ID : 0
Format : MPEG-4 Visual
Format profile : Advanced Simple@L5
Format settings, BVOP : 1
Format settings, QPel : No
Format settings, GMC : No warppoints
Format settings, Matrix : Custom
Codec ID : XVID
Codec ID/Hint : XviD
Duration : 1h 21mn
Bit rate : 2 206 Kbps
Width : 720 pixels
Height : 416 pixels
Display aspect ratio : 1.731
Frame rate : 25.000 fps
Color space : YUV
Chroma subsampling : 4:2:0
Bit depth : 8 bits
Scan type : Progressive
Compression mode : Lossy
Bits/(Pixel*Frame) : 0.295
Stream size : 1.25 GiB (92%)
Writing library : XviD 64
Audio
ID : 1
Format : AC-3
Format/Info : Audio Coding 3
Mode extension : CM (complete main)
Format settings, Endianness : Big
Codec ID : 2000
Duration : 1h 21mn
Bit rate mode : Constant
Bit rate : 192 Kbps
Channel(s) : 2 channels
Channel positions : Front: L R
Sampling rate : 48.0 KHz
Compression mode : Lossy
Stream size : 112 MiB (8%)
Alignment : Split accross interleaves
Interleave, duration : 40 ms (1.00 video frame)
Interleave, preload duratio : 500 ms

Скриншот c названием фильма

Скриншоты

To download the content you need:
1. Download and install torrent client [for Windows] or for mobile system
2. Click on [Download]
Attention.
If the test YOU are NOT a ROBOT - does not work, then You are using an outdated browser.
Install the current browser and click on [Download]

Do not work with Yandex browser. Uploading files to them is erroneous.
Security: torrent client is allowed by Kaspersky.

[en.asmlocator.ru].t4472.torrent 
Torrent: Registered [ 2015-12-01 13:55 ] · 35C3DC9903D8D5D6847DB5C9B1E141D6B5318806

Download .torrent

Download

14 KB

Status: checked
Completed: 0 times
Size: 1.37 GB
terms.php
[Profile] [PM]
Display posts:    
Reply to topic

Current time is: 07-Apr 20:28

All times are UTC ± 0



You cannot post new topics in this forum
You cannot reply to topics in this forum
You cannot edit your posts in this forum
You cannot delete your posts in this forum
You cannot vote in polls in this forum
You cannot attach files in this forum
You can download files in this forum
Верим фактам, а не вранью Путина! Факт, что Правительство ведёт Россию к истреблению.
Так как численность населения падает, даже не смотря на приток эмигрантов!
Русская нация вымирает и вырождается, смешиваясь с эмигрантами!
Факт, что военных и граждан предприятий заставляют голосовать за партию Единая Россия и Путина
ПОД СТРАХОМ УВОЛЬНЕНИЯ!
Нам не нужно Правительство, блокирующее личную жизнь, интернет, нарушающее сохранность данных.
Все эти действия финансируются за счёт народа!