Скрывающийся в доме / Чужой в доме / Hider in the House (Мэттью Патрик / Matthew Patrick) [1989, США, Триллер, VHSRip] [Fullscreen] AVO (Гаврилов, Карцев)

Reply to topic
DL-List and Torrent activity
Size:  1.61 GB   |    Registered:  4 years 4 months   |    Completed:  0 times

Seeder not seen: Never

 
   
 
 
Author Message

star21 ®

Gender: Female

Longevity: 4 years 5 months

Posts: 551945

Location: Екатеринбург

Post 01-Dec-2015 13:57

[Quote]

Скрывающийся в доме / Чужой в доме / Hider in the House
Страна: США
Жанр: Триллер
Год выпуска: 1989
Продолжительность: 1:48:59
Перевод: Авторский (одноголосый закадровый) А. Гаврилов
Перевод 2: Авторский (одноголосый закадровый) П. Карцев
Cубтитры: нет
Режиссер: Мэттью Патрик / Matthew Patrick
В ролях: Гэри Бьюзи, Мими Роджерс, Майкл МакКин, Курт Кристофер, Киндер Кендес
Описание: Большую часть своей жизни Том провел в психиатрической лечебнице. В детстве он стал виновником смерти своей матери и отца, который постоянно избивал ребенка. Мальчик вырос и превратился в юношу. Врачи посчитали, что теперь он уже не опасен для общества и решили выпустить его из клиники. В это же время молодая девушка Джули вместе со своим мужем и детьми переезжает в новый дом. Она не знает, что на чердаке этого дома в тайне от всех поселился Том, внимательно наблюдающий за всем, что происходит в доме Джули.
Сэмпл: https://www.sendspace.com/file/e7trh8
Качество видео: VHSRip
Формат видео: AVI
Видео: XviD MPEG-4 , 704x528 (1.33:1) , 29.970 fps ,1 710 Kbps
Аудио: AC3 , 48 kHz , 192.00 kbps avg , 2/0 (L,R) ch Гаврилов
Аудио 2: AC3 , 48 kHz , 192.00 kbps avg , 2/0 (L,R) ch Карцев

MediaInfo

Complete name Скрывающийся в доме.avi
Format : AVI
Format/Info : Audio Video Interleave
File size : 1.61 GiB
Duration : 1h 48mn
Overall bit rate : 2 112 Kbps
Writing application : VirtualDubMod 1.5.10.3 | www.virtualdub-fr.org || (build 2550/release)
Writing library : VirtualDubMod build 2550/release
Video
ID : 0
Format : MPEG-4 Visual
Format profile : Advanced Simple@L5
Format settings, BVOP : 2
Format settings, QPel : No
Format settings, GMC : No warppoints
Format settings, Matrix : Default (H.263)
Codec ID : XVID
Codec ID/Hint : XviD
Duration : 1h 48mn
Bit rate : 1 710 Kbps
Width : 704 pixels
Height : 528 pixels
Display aspect ratio : 4:3
Frame rate : 29.970 fps
Color space : YUV
Chroma subsampling : 4:2:0
Bit depth : 8 bits
Scan type : Progressive
Compression mode : Lossy
Bits/(Pixel*Frame) : 0.154
Stream size : 1.30 GiB (81%)
Writing library : XviD 1.2.1 (UTC 2008-12-04)
Audio #1
ID : 1
Format : AC-3
Format/Info : Audio Coding 3
Mode extension : CM (complete main)
Format settings, Endianness : Big
Codec ID : 2000
Duration : 1h 48mn
Bit rate mode : Constant
Bit rate : 192 Kbps
Channel(s) : 2 channels
Channel positions : Front: L R
Sampling rate : 48.0 KHz
Bit depth : 16 bits
Compression mode : Lossy
Stream size : 150 MiB (9%)
Alignment : Split accross interleaves
Interleave, duration : 33 ms (1.00 video frame)
Interleave, preload duratio : 500 ms
Audio #2
ID : 2
Format : AC-3
Format/Info : Audio Coding 3
Mode extension : CM (complete main)
Format settings, Endianness : Big
Codec ID : 2000
Duration : 1h 48mn
Bit rate mode : Constant
Bit rate : 192 Kbps
Channel(s) : 2 channels
Channel positions : Front: L R
Sampling rate : 48.0 KHz
Bit depth : 16 bits
Compression mode : Lossy
Stream size : 150 MiB (9%)
Alignment : Split accross interleaves
Interleave, duration : 33 ms (1.00 video frame)
Interleave, preload duratio : 500 ms

To download the content you need:
1. Download and install torrent client [for Windows] or for mobile system
2. Click on [Download]
Attention.
If the test YOU are NOT a ROBOT - does not work, then You are using an outdated browser.
Install the current browser and click on [Download]

Do not work with Yandex browser. Uploading files to them is erroneous.
Security: torrent client is allowed by Kaspersky.

[en.asmlocator.ru].t4468.torrent 
Torrent: Registered [ 2015-12-01 13:55 ] · 073AB8E043187E15D8F62428F779BCF46B242989

Download .torrent

Download

17 KB

Status: checked
Completed: 0 times
Size: 1.61 GB
terms.php
[Profile] [PM]
Display posts:    
Reply to topic

Current time is: 07-Apr 19:47

All times are UTC ± 0



You cannot post new topics in this forum
You cannot reply to topics in this forum
You cannot edit your posts in this forum
You cannot delete your posts in this forum
You cannot vote in polls in this forum
You cannot attach files in this forum
You can download files in this forum
Верим фактам, а не вранью Путина! Факт, что Правительство ведёт Россию к истреблению.
Так как численность населения падает, даже не смотря на приток эмигрантов!
Русская нация вымирает и вырождается, смешиваясь с эмигрантами!
Факт, что военных и граждан предприятий заставляют голосовать за партию Единая Россия и Путина
ПОД СТРАХОМ УВОЛЬНЕНИЯ!
Нам не нужно Правительство, блокирующее личную жизнь, интернет, нарушающее сохранность данных.
Все эти действия финансируются за счёт народа!