Выстоять и сделать / Выстоять и добиться / Stand and Deliver (Рамон Менендез / Ramón Menéndez) [1988, США, драма, WEB-DLRip] VO (Логинофф)

Reply to topic
DL-List and Torrent activity
Size:  1.46 GB   |    Registered:  4 years 3 months   |    Completed:  1 time

Seeder not seen: 5 months 9 days

 
   
 
 
Author Message

star21 ®

Gender: Female

Longevity: 4 years 4 months

Posts: 551945

Location: Екатеринбург

Post 01-Dec-2015 13:57

[Quote]

Выстоять и сделать / Выстоять и добиться / Stand and Deliver
Страна: США
Жанр: драма
Год выпуска: 1988
Продолжительность: 01:43:22
Перевод: Одноголосый закадровый - Максим Логинофф
Cубтитры: нет

Режиссер: Рамон Менендез / Ramón Menéndez
В ролях: Эдвард Джеймс Олмос, Эстелль Харрис, Марк Фелан, Вирджиния Пэрис, Марк Элиот, Аделаида Алварез, Уилл Готэй, Патрик Бака, Ингрид Олиу, Кармен Ардженциано, Лу Даймонд Филлипс
Описание: Хайми Эскаланте, учитель математики, преподаёт в школе для детей из неблагополучных семей. Хайми уверен, что, несмотря на то что его ученики, курят и состоят в различных бандах и группировках, они очень способные ребята. Он ставит перед собой цель вывести их в люди, чтобы они могли получить достойное образование и вырваться из бандитской среды.
Качество видео:
Формат видео: AVI
Видео: 704x400 (1.76:1), 23.976 fps, XviD build 73 ~1814 kbps avg, 0.27 bit/pixel
Аудио: 48 kHz, AC3 Dolby Digital, 2/0 (L,R) ch, ~192 kbps

Сравнение

- разное наполнение кадра
http://screenshotcomparison.com/comparison/133654

MediaInfo

Общее
Полное имя : H:\Stand.and.Deliver.1988.web-dlrip_[1.46]_[teko].avi
Формат : AVI
Формат/Информация : Audio Video Interleave
Размер файла : 1,46 Гбайт
Продолжительность : 1 ч. 43 м.
Общий поток : 2016 Кбит/сек
Программа кодирования : VirtualDubMod 1.5.10.3 | www.virtualdub-fr.org || (build 2550/release)
Библиотека кодирования : VirtualDubMod build 2550/release
Видео
Идентификатор : 0
Формат : MPEG-4 Visual
Профиль формата : Advanced Simple@L5
Параметр BVOP формата : 1
Параметр QPel формата : Нет
Параметр GMC формата : Без точки перехода
Параметр матрицы формата : Выборочная
Идентификатор кодека : XVID
Идентификатор кодека/Подсказка : XviD
Продолжительность : 1 ч. 43 м.
Битрейт : 1815 Кбит/сек
Ширина : 704 пикселя
Высота : 400 пикселей
Соотношение сторон : 16:9
Частота кадров : 23,976 кадра/сек
Цветовое пространство : YUV
Субдискретизация насыщенности : 4:2:0
Битовая глубина : 8 бит
Тип развёртки : Прогрессивная
Метод сжатия : С потерями
Бит/(Пиксели*Кадры) : 0.269
Размер потока : 1,31 Гбайт (90%)
Библиотека кодирования : XviD 73
Аудио
Идентификатор : 1
Формат : AC-3
Формат/Информация : Audio Coding 3
Расширение режима : CM (complete main)
Параметр Endianness формата : Big
Идентификатор кодека : 2000
Продолжительность : 1 ч. 43 м.
Вид битрейта : Постоянный
Битрейт : 192 Кбит/сек
Каналы : 2 канала
Расположение каналов : Front: L R
Частота : 48,0 КГц
Битовая глубина : 16 бит
Метод сжатия : С потерями
Размер потока : 142 Мбайт (10%)
Выравнивание : Разделение по промежуткам
Продолжительность промежутка : 42 мс. (1,00 видеокадр)
Время предзагрузки промежутка : 500 мс.
Релиз группы:
-
-

To download the content you need:
1. Download and install torrent client [for Windows] or for mobile system
2. Click on [Download]
Attention.
If the test YOU are NOT a ROBOT - does not work, then You are using an outdated browser.
Install the current browser and click on [Download]

Do not work with Yandex browser. Uploading files to them is erroneous.
Security: torrent client is allowed by Kaspersky.

[en.asmlocator.ru].t4466.torrent 
Torrent: Registered [ 2015-12-01 13:55 ] · E64ED9B642BFE51423B40504B8E150CD0E1D6FD7

Download .torrent

Download

15 KB

Status: checked
Completed: 1 times
Size: 1.46 GB
terms.php
[Profile] [PM]
Display posts:    
Reply to topic

Current time is: 29-Mar 17:18

All times are UTC ± 0



You cannot post new topics in this forum
You cannot reply to topics in this forum
You cannot edit your posts in this forum
You cannot delete your posts in this forum
You cannot vote in polls in this forum
You cannot attach files in this forum
You can download files in this forum
Верим фактам, а не вранью Путина! Факт, что Правительство ведёт Россию к истреблению.
Так как численность населения падает, даже не смотря на приток эмигрантов!
Русская нация вымирает и вырождается, смешиваясь с эмигрантами!
Факт, что военных и граждан предприятий заставляют голосовать за партию Единая Россия и Путина
ПОД СТРАХОМ УВОЛЬНЕНИЯ!
Нам не нужно Правительство, блокирующее личную жизнь, интернет, нарушающее сохранность данных.
Все эти действия финансируются за счёт народа!