Кот из космоса / The Cat from Outer Space (Норман Токарь / Norman Tokar) [1978, США, семейный, фантастика, комедия, DVDRip] DVO (Green Tea)

Reply to topic
DL-List and Torrent activity
Size:  1.36 GB   |    Registered:  4 years 4 months   |    Completed:  0 times

Seeder not seen: Never

 
   
 
 
Author Message

star21 ®

Gender: Female

Longevity: 4 years 4 months

Posts: 551945

Location: Екатеринбург

Post 01-Dec-2015 13:57

[Quote]

Кот из космоса
The Cat from Outer Space
Страна: США
Жанр: семейный, фантастика, комедия
Год выпуска: 1978
Продолжительность: 01:43:41-Перевод: Любительский (двухголосый закадровый) Елена Егорова и Дмитрий Познанский
Cубтитры: нет
Оригинальная аудиодорожка: нет-Режиссер: Норман Токарь / Norman Tokar
В ролях: Кен Берри, Сэнди Дункан, Гарри Морган, Родди МакДауэлл и др.-Описание: Корабль, управляемый говорящим котом, потерпел крушение. У правительства США в лице генерала Стилтона теперь находится один из силовых модулей корабля. А кот ищет помощи у теоретика Фрэнка Вилсона, который единственный в силах помочь ему выполнить запланированную миссию.-Доп. информация:
Релиз: группа "GREEN TEA"
Перевод: Виктория Широкова
Работа со звуком: Ольга Гринтиева-Сэмпл-Качество видео: DVDRip
Формат видео: AVI
Видео: XviD, 23.976 fps, 1682 Kbps, 640x352, 0.311
Аудио: MP3, 48 kHz, 2 ch, 192 kbps

MediaInfo

Format : AVI
Format/Info : Audio Video Interleave
File size : 1.36 GiB
Duration : 1h 43mn
Overall bit rate : 1 884 Kbps
Writing library : VirtualDub build 32842/release
Video
ID : 0
Format : MPEG-4 Visual
Format profile : Advanced Simple@L5
Format settings, BVOP : 2
Format settings, QPel : No
Format settings, GMC : No warppoints
Format settings, Matrix : Default (H.263)
Muxing mode : Packed bitstream
Codec ID : XVID
Codec ID/Hint : XviD
Duration : 1h 43mn
Bit rate : 1 682 Kbps
Width : 640 pixels
Height : 352 pixels
Display aspect ratio : 16:9
Frame rate : 23.976 fps
Color space : YUV
Chroma subsampling : 4:2:0
Bit depth : 8 bits
Scan type : Progressive
Compression mode : Lossy
Bits/(Pixel*Frame) : 0.311
Stream size : 1.22 GiB (89%)
Writing library : XviD 1.2.1 (UTC 2008-12-04)
Audio
ID : 1
Format : MPEG Audio
Format version : Version 1
Format profile : Layer 3
Mode : Joint stereo
Codec ID : 55
Codec ID/Hint : MP3
Duration : 1h 43mn
Bit rate mode : Constant
Bit rate : 192 Kbps
Channel count : 2 channels
Sampling rate : 48.0 KHz
Compression mode : Lossy
Stream size : 142 MiB (10%)
Alignment : Split accross interleaves
Interleave, duration : 42 ms (1.00 video frame)
Interleave, preload duration : 500 ms

Скриншот c названием фильма

Скриншоты

To download the content you need:
1. Download and install torrent client [for Windows] or for mobile system
2. Click on [Download]
Attention.
If the test YOU are NOT a ROBOT - does not work, then You are using an outdated browser.
Install the current browser and click on [Download]

Do not work with Yandex browser. Uploading files to them is erroneous.
Security: torrent client is allowed by Kaspersky.

[en.asmlocator.ru].t4461.torrent 
Torrent: Registered [ 2015-12-01 13:55 ] · 3DE335A357B842FCDF10E654D09FCADC606715B0

Download .torrent

Download

14 KB

Status: checked
Completed: 0 times
Size: 1.36 GB
terms.php
[Profile] [PM]
Display posts:    
Reply to topic

Current time is: 03-Apr 10:04

All times are UTC ± 0



You cannot post new topics in this forum
You cannot reply to topics in this forum
You cannot edit your posts in this forum
You cannot delete your posts in this forum
You cannot vote in polls in this forum
You cannot attach files in this forum
You can download files in this forum
Верим фактам, а не вранью Путина! Факт, что Правительство ведёт Россию к истреблению.
Так как численность населения падает, даже не смотря на приток эмигрантов!
Русская нация вымирает и вырождается, смешиваясь с эмигрантами!
Факт, что военных и граждан предприятий заставляют голосовать за партию Единая Россия и Путина
ПОД СТРАХОМ УВОЛЬНЕНИЯ!
Нам не нужно Правительство, блокирующее личную жизнь, интернет, нарушающее сохранность данных.
Все эти действия финансируются за счёт народа!