Моя левая нога / My Left Foot: The Story of Christy Brown (Джим Шеридан / Jim Sheridan) [1989, Ирландия, Великобритания, Драма, биография, BDRip] DVO + Original (Eng) + Sub (Rus, Eng)

Reply to topic
DL-List and Torrent activity
Size:  2.19 GB   |    Registered:  4 years 4 months   |    Completed:  0 times

Seeder not seen: Never

 
   
 
 
Author Message

star21 ®

Gender: Female

Longevity: 4 years 4 months

Posts: 551945

Location: Екатеринбург

Post 01-Dec-2015 13:57

[Quote]

Моя левая нога / My Left Foot: The Story of Christy Brown«A film about life, laughter, and the occasional miracle»- Страна: Ирландия, Великобритания
Жанр: Драма, биография
Год выпуска: 1989
Продолжительность: 01:43:19-Перевод: Профессиональный (двухголосый закадровый)
Cубтитры: русские, английские, английские (SDH) (внешние, srt)
Оригинальная аудиодорожка: английский-Режиссер: Джим Шеридан / Jim Sheridan-В ролях: Дэниэл Дэй-Льюис, Бренда Фрикер, Элисон Вилан, Кёрстен Шеридан, Declan Croghan, Инна МакЛиэм, Marie Conmee, Сирил Кьюcак, Фелим Дрю, Рут МакКейб, Фиона Шоу, Рэй МакЭнэлли, Пэт Лаффан, Дерри Пауэр, Хью О’Конор, Даррен МакХью, Оуэн Шарп, Эйлин Колган, Кейт О’Конор, Том Хикки-Описание: Фильм, основанный на удивительных достижениях мужественного инвалида, ирландца Кристи Брауна. Браун стал жертвой церебрального паралича и считался всеми окружающими неполноценным человеком до тех пор, пока любовь матери и семьи, его личное мужество и упорство не помогли ему научиться рисовать и писать пальцами левой ноги.-Sample | [imdb]http://www.imdb.com/title/tt0097937[/imdb] | КиноПоиск-Тип релиза: BDRip [исх. спасибо ]
Формат видео: AVI-Видео: 720x400 (1.80:1), 23.976 fps, XviD build 50, 2383 kbps avg, 0.35 bit/pixel
Аудио 1: 48 kHz, AC3 Dolby Digital, 2/0 (L,R) ch, 192.00 kbps avg [Russian_DVO]
Аудио 2: 48 kHz, AC3 Dolby Digital, 3/2 (L,C,R,l,r) + LFE ch, 448.00 kbps avg [Original_Eng]-Релиз группы:-

Сравнение скриншотов

http://screenshotcomparison.com/comparison/133810/picture:0

MediaInfo

General
Complete name : D:\Мои релизы\My Left Foot_BDRip_RG_All_Films\My Left Foot_BDRip_RG_All_Films.avi
Format : AVI
Format/Info : Audio Video Interleave
Format profile : OpenDML
File size : 2.19 GiB
Duration : 1h 43mn
Overall bit rate : 3 031 Kbps
Writing application : VirtualDubMod 1.6.0.0 SURROUND (build 2560/release)
Writing library : VirtualDubMod build 2560/release
Video
ID : 0
Format : MPEG-4 Visual
Format profile : Advanced Simple@L5
Format settings, BVOP : Yes
Format settings, QPel : No
Format settings, GMC : No warppoints
Format settings, Matrix : Custom
Codec ID : XVID
Codec ID/Hint : XviD
Duration : 1h 43mn
Bit rate : 2 372 Kbps
Width : 720 pixels
Height : 400 pixels
Display aspect ratio : 16:9
Frame rate : 23.976 fps
Color space : YUV
Chroma subsampling : 4:2:0
Bit depth : 8 bits
Scan type : Progressive
Compression mode : Lossy
Bits/(Pixel*Frame) : 0.344
Stream size : 1.71 GiB (78%)
Writing library : XviD 1.2.1 (UTC 2008-12-04)
Audio #1
ID : 1
Format : AC-3
Format/Info : Audio Coding 3
Mode extension : CM (complete main)
Codec ID : 2000
Duration : 1h 43mn
Bit rate mode : Constant
Bit rate : 192 Kbps
Channel(s) : 2 channels
Channel positions : Front: L R
Sampling rate : 48.0 KHz
Bit depth : 16 bits
Compression mode : Lossy
Stream size : 142 MiB (6%)
Alignment : Split accross interleaves
Interleave, duration : 42 ms (1.00 video frame)
Interleave, preload duration : 500 ms
Audio #2
ID : 2
Format : AC-3
Format/Info : Audio Coding 3
Mode extension : CM (complete main)
Codec ID : 2000
Duration : 1h 43mn
Bit rate mode : Constant
Bit rate : 448 Kbps
Channel(s) : 6 channels
Channel positions : Front: L C R, Side: L R, LFE
Sampling rate : 48.0 KHz
Bit depth : 16 bits
Compression mode : Lossy
Stream size : 331 MiB (15%)
Alignment : Split accross interleaves
Interleave, duration : 42 ms (1.00 video frame)
Interleave, preload duration : 500 ms

Скриншоты

To download the content you need:
1. Download and install torrent client [for Windows] or for mobile system
2. Click on [Download]
Attention.
If the test YOU are NOT a ROBOT - does not work, then You are using an outdated browser.
Install the current browser and click on [Download]

Do not work with Yandex browser. Uploading files to them is erroneous.
Security: torrent client is allowed by Kaspersky.

[en.asmlocator.ru].t4457.torrent 
Torrent: Registered [ 2015-12-01 13:55 ] · F92F3578E3D19358274F9E4E93A07666C788AE50

Download .torrent

Download

12 KB

Status: checked
Completed: 0 times
Size: 2.19 GB
terms.php
[Profile] [PM]
Display posts:    
Reply to topic

Current time is: 04-Apr 15:45

All times are UTC ± 0



You cannot post new topics in this forum
You cannot reply to topics in this forum
You cannot edit your posts in this forum
You cannot delete your posts in this forum
You cannot vote in polls in this forum
You cannot attach files in this forum
You can download files in this forum
Верим фактам, а не вранью Путина! Факт, что Правительство ведёт Россию к истреблению.
Так как численность населения падает, даже не смотря на приток эмигрантов!
Русская нация вымирает и вырождается, смешиваясь с эмигрантами!
Факт, что военных и граждан предприятий заставляют голосовать за партию Единая Россия и Путина
ПОД СТРАХОМ УВОЛЬНЕНИЯ!
Нам не нужно Правительство, блокирующее личную жизнь, интернет, нарушающее сохранность данных.
Все эти действия финансируются за счёт народа!