Свидание с ангелом / Date with an Angel (Том МакЛафлин / Tom McLoughlin) [1987, США, фэнтези, комедия, WEB-DLRip] AVO (Юрий Живов) + MVO (Россия) + DVO (EA)

Reply to topic
DL-List and Torrent activity
Size:  1.69 GB   |    Registered:  4 years 3 months   |    Completed:  0 times

Seeder not seen: Never

 
   
 
 
Author Message

star21 ®

Gender: Female

Longevity: 4 years 4 months

Posts: 551945

Location: Екатеринбург

Post 01-Dec-2015 13:57

[Quote]

Свидание с ангелом / Date with an Angel
Страна: США
Жанр: фэнтези, комедия
Год выпуска: 1987
Продолжительность: 01:45:23
Перевод: Авторский (одноголосый закадровый) Юрий Живов
Перевод 2: Профессиональный (многоголосый закадровый) Россия
Перевод 3: Профессиональный (двухголосый закадровый) EA
Cубтитры: нет
Режиссер: Том МакЛафлин / Tom McLoughlin
В ролях: Майкл И. Найт, Фиби Кэйтс /Phoebe Cates/, Эмманюэль Беар /Emmanuelle Beart/, Дэвид Дьюкс /David Dukes/, Биби Беш /Bibi Besch/, Пит Ковэнко, Фил Брок /Phil Brock/, Алберт Маклин, Винни Аргиро /Vinny Argiro/, Стивен Бэнкс, Чарлз Лэйн /Charles Lane/, Том МакЛафлин /Tom McLoughlin/
Описание: Женитьба молодого музыканта оказывается под угрозой, когда в его бассейн падает с небес девушка-ангел со сломаным крылом. Мало того, что его невеста не верит его объяснениям, его друзья и будущий тесть пытаются похитить ангела, чтобы использовать в рекламных целях. Довольно примитивная комедия, которая может заинтересовать разве что поклонников Эммануэль Беар, которая блистает здесь поистине ангельской красотой
Доп. информация: Релиз
Сэмпл: https://yadi.sk/i/zNRHEpzkhh2JD
Качество видео: WEB-DLRip
Формат видео: AVI
Видео: 720x304 (2.37:1), 23.976 fps, XviD build 50 ~1672 kbps avg, 0.32 bit/pixel
Аудио: 48 kHz, AC3 Dolby Digital, 2/0 (L,R) ch, ~224 kbps AVO (sasikainen)
Аудио 2: 48 kHz, AC3 Dolby Digital, 2/0 (L,R) ch, ~192 kbps MVO (отдельно) (Сollega)
Аудио 3: 48 kHz, AC3 Dolby Digital, 2/0 (L,R) ch, ~192 kbps DVO (отдельно) (PitKor)

MediaInfo

Свидание с ангелом - Date With an Angel [by Edich2].avi
Format : AVI
Format/Info : Audio Video Interleave
File size : 1.40 GiB
Duration : 1h 45mn
Overall bit rate : 1 906 Kbps
Movie name : Свидание с ангелом - Date With an Angel [by Edich2]
Director : by Edich2
Writing application : VirtualDubMod 1.5.10.2 (build 2540/release)
Comment : RuTracker.org
Video
ID : 0
Format : MPEG-4 Visual
Format profile : Advanced Simple@L5
Format settings, BVOP : 1
Format settings, QPel : No
Format settings, GMC : No warppoints
Format settings, Matrix : Default (MPEG)
Codec ID : XVID
Codec ID/Hint : XviD
Duration : 1h 45mn
Bit rate : 1 673 Kbps
Width : 720 pixels
Height : 304 pixels
Display aspect ratio : 2.35:1
Frame rate : 23.976 fps
Color space : YUV
Chroma subsampling : 4:2:0
Bit depth : 8 bits
Scan type : Progressive
Compression mode : Lossy
Bits/(Pixel*Frame) : 0.319
Stream size : 1.23 GiB (88%)
Writing library : XviD 1.2.1 (UTC 2008-12-04)
Audio
ID : 1
Format : AC-3
Format/Info : Audio Coding 3
Mode extension : CM (complete main)
Format settings, Endianness : Big
Codec ID : 2000
Duration : 1h 45mn
Bit rate mode : Constant
Bit rate : 224 Kbps
Channel(s) : 2 channels
Channel positions : Front: L R
Sampling rate : 48.0 KHz
Bit depth : 16 bits
Compression mode : Lossy
Stream size : 169 MiB (12%)
Alignment : Split accross interleaves
Interleave, duration : 42 ms (1.00 video frame)
Interleave, preload duration : 500 ms

Скриншоты


To download the content you need:
1. Download and install torrent client [for Windows] or for mobile system
2. Click on [Download]
Attention.
If the test YOU are NOT a ROBOT - does not work, then You are using an outdated browser.
Install the current browser and click on [Download]

Do not work with Yandex browser. Uploading files to them is erroneous.
Security: torrent client is allowed by Kaspersky.

[en.asmlocator.ru].t4455.torrent 
Torrent: Registered [ 2015-12-01 13:55 ] · 6FD98FE673C24F6C8DCC43D648CA87E6EE0217BF

Download .torrent

Download

18 KB

Status: checked
Completed: 0 times
Size: 1.69 GB
terms.php
[Profile] [PM]
Display posts:    
Reply to topic

Current time is: 30-Mar 00:15

All times are UTC ± 0



You cannot post new topics in this forum
You cannot reply to topics in this forum
You cannot edit your posts in this forum
You cannot delete your posts in this forum
You cannot vote in polls in this forum
You cannot attach files in this forum
You can download files in this forum
Верим фактам, а не вранью Путина! Факт, что Правительство ведёт Россию к истреблению.
Так как численность населения падает, даже не смотря на приток эмигрантов!
Русская нация вымирает и вырождается, смешиваясь с эмигрантами!
Факт, что военных и граждан предприятий заставляют голосовать за партию Единая Россия и Путина
ПОД СТРАХОМ УВОЛЬНЕНИЯ!
Нам не нужно Правительство, блокирующее личную жизнь, интернет, нарушающее сохранность данных.
Все эти действия финансируются за счёт народа!