Пугало из чердачного окна / Ghosts from the attic / Strasidla z vikýre (Радим Цврчек / Radim Cvrček) [1987, Чехословакия, семейный, DVDRip-AVC] VO + Sub Rus + Original Cze

Reply to topic
DL-List and Torrent activity
Size:  1.58 GB   |    Registered:  4 years 4 months   |    Completed:  1 time

Seeder not seen: 5 months 14 days

 
   
 
 
Author Message

star21 ®

Gender: Female

Longevity: 4 years 4 months

Posts: 551945

Location: Екатеринбург

Post 01-Dec-2015 13:57

[Quote]

Пугало из чердачного окна / Ghosts from the attic / Strasidla z vikýre
Страна: Чехословакия
Жанр: семейный
Год выпуска: 1987
Продолжительность: 01:19:24
Перевод: Одноголосый закадровый
Cубтитры: русские
Оригинальная аудиодорожка: чешский
Режиссер: Радим Цврчек / Radim Cvrček
В ролях: Рудольф Грушинский, Яна Штепанкова, Катарина Шулайова, Йозеф Шомр, Михал Дочоломанский, Петр Жижка, Яна Свободова, Вильма Ямницка, Мария Хайкова, Иржи Маршалек
Описание: История про девочку, которая приехала летом в гости к деду, который всегда готов порадовать внучку замечательным аттракционом - садом ужасов. Всех страшилищ и духов он изготовил сам, своими руками, но вот самостоятельность одного из них он никак не мог предвидеть. Вмешательство девочки в размеренную деревенскую жизнь принесло свои плоды. Местами забавные, а местами трогательные и милые. Только вот проблема одна - пугало должно только пугать. Как же обратить его магическую энергию в мирное русло?
Доп. информация: Фильм взят отсюда
Сэмпл: http://multi-up.com/1057531
Качество видео: DVDRip-AVC
Формат видео: MKV
Видео: AVC at 2404 Кбит/сек Aspect : 704 x 520 (1.354) at 25.000 fps
Аудио 1: AC-3 at 224 Кбит/сек : 2 канала, 48,0 КГц, 127.141602 MiB Language : ru
Аудио 2: AC-3 at 224 Кбит/сек : 2 канала, 48,0 КГц, 127.207397 MiB Language : cs
Формат субтитров: softsub (SRT)
Доп. информация о субтитрах: Русские отключаемые (sacredm)

MediaInfo

Общее
Уникальный идентификатор : 184991797279764766047493551461390980813 (0x8B2C1FCA91B956819ADABC88E0B196CD)
Полное имя : F:\С моей озвучкой\Пугало из чердачного окна.mkv
Формат : Matroska
Версия формата : Version 4 / Version 2
Размер файла : 1,58 Гбайт
Продолжительность : 1 ч. 19 м.
Общий поток : 2854 Кбит/сек
Дата кодирования : UTC 2015-07-07 20:44:57
Программа кодирования : mkvmerge v7.9.0 ('Birds') 64bit
Библиотека кодирования : libebml v1.3.1 + libmatroska v1.4.2
_STATISTICS_WRITING_APP : mkvmerge v7.9.0 ('Birds') 64bit
_STATISTICS_WRITING_DATE_UTC : 2015-07-07 20:44:57
_STATISTICS_TAGS : BPS DURATION NUMBER_OF_FRAMES NUMBER_OF_BYTES
DURATION : 01:19:21.344000000
NUMBER_OF_FRAMES : 148792
NUMBER_OF_BYTES : 133317632
Видео
Идентификатор : 1
Формат : AVC
Формат/Информация : Advanced Video Codec
Профиль формата : High@L4.0
Параметр CABAC формата : Да
Параметр ReFrames формата : 16 кадров
Идентификатор кодека : V_MPEG4/ISO/AVC
Продолжительность : 1 ч. 19 м.
Битрейт : 2404 Кбит/сек
Ширина : 704 пикселя
Высота : 520 пикселей
Соотношение сторон : 4:3
Режим частоты кадров : Постоянный
Частота кадров : 25,000 кадров/сек
Цветовое пространство : YUV
Субдискретизация насыщенности : 4:2:0
Битовая глубина : 8 бит
Тип развёртки : Прогрессивная
Бит/(Пиксели*Кадры) : 0.263
Размер потока : 1,30 Гбайт (82%)
Библиотека кодирования : x264 core 146 r2538 121396c
Настройки программы : cabac=1 / ref=16 / deblock=1:-1:-1 / analyse=0x3:0x133 / me=umh / subme=10 / psy=1 / psy_rd=1.00:0.15 / mixed_ref=1 / me_range=24 / chroma_me=1 / trellis=2 / 8x8dct=1 / cqm=0 / deadzone=21,11 / fast_pskip=1 / chroma_qp_offset=-3 / threads=12 / lookahead_threads=2 / sliced_threads=0 / nr=0 / decimate=1 / interlaced=0 / bluray_compat=0 / constrained_intra=0 / bframes=8 / b_pyramid=2 / b_adapt=2 / b_bias=0 / direct=3 / weightb=1 / open_gop=0 / weightp=2 / keyint=250 / keyint_min=25 / scenecut=40 / intra_refresh=0 / rc_lookahead=60 / rc=2pass / mbtree=1 / bitrate=2404 / ratetol=1.0 / qcomp=0.60 / qpmin=0 / qpmax=69 / qpstep=4 / cplxblur=20.0 / qblur=0.5 / ip_ratio=1.40 / aq=1:1.00
Default : Да
Forced : Нет
Аудио #1
Идентификатор : 2
Формат : AC-3
Формат/Информация : Audio Coding 3
Расширение режима : CM (complete main)
Параметр Endianness формата : Big
Идентификатор кодека : A_AC3
Продолжительность : 1 ч. 19 м.
Вид битрейта : Постоянный
Битрейт : 224 Кбит/сек
Каналы : 2 канала
Расположение каналов : Front: L R
Частота : 48,0 КГц
Битовая глубина : 16 бит
Метод сжатия : С потерями
Размер потока : 127 Мбайт (8%)
Язык : Russian
Default : Нет
Forced : Нет
Аудио #2
Идентификатор : 3
Формат : AC-3
Формат/Информация : Audio Coding 3
Расширение режима : CM (complete main)
Параметр Endianness формата : Big
Идентификатор кодека : A_AC3
Продолжительность : 1 ч. 19 м.
Вид битрейта : Постоянный
Битрейт : 224 Кбит/сек
Каналы : 2 канала
Расположение каналов : Front: L R
Частота : 48,0 КГц
Битовая глубина : 16 бит
Метод сжатия : С потерями
Размер потока : 127 Мбайт (8%)
Язык : Czech
Default : Нет
Forced : Нет
Текст #1
Идентификатор : 4
Формат : UTF-8
Идентификатор кодека : S_TEXT/UTF8
Идентификатор кодека/Информация : UTF-8 Plain Text
Заголовок : Russian (sacredm)
Язык : Russian
Default : Да
Forced : Нет
Текст #2
Идентификатор : 5
Формат : UTF-8
Идентификатор кодека : S_TEXT/UTF8
Идентификатор кодека/Информация : UTF-8 Plain Text
Язык : Czech
Default : Нет
Forced : Нет
Меню
00:00:00.000 : :Chapter 01
00:08:34.440 : :Chapter 02
00:14:37.520 : :Chapter 03
00:20:20.800 : :Chapter 04
00:27:33.160 : :Chapter 05
00:36:48.680 : :Chapter 06
00:44:53.040 : :Chapter 07
00:48:23.040 : :Chapter 08
00:54:56.880 : :Chapter 09
00:59:12.360 : :Chapter 10
01:09:25.600 : :Chapter 11
01:16:15.920 : :Chapter 12
01:19:23.320 : :Chapter 13

Скриншоты

To download the content you need:
1. Download and install torrent client [for Windows] or for mobile system
2. Click on [Download]
Attention.
If the test YOU are NOT a ROBOT - does not work, then You are using an outdated browser.
Install the current browser and click on [Download]

Do not work with Yandex browser. Uploading files to them is erroneous.
Security: torrent client is allowed by Kaspersky.

[en.asmlocator.ru].t4448.torrent 
Torrent: Registered [ 2015-12-01 13:55 ] · 44A54300090E4DF93C2F47B05706B5E7FCFDAA2C

Download .torrent

Download

16 KB

Status: checked
Completed: 1 times
Size: 1.58 GB
terms.php
[Profile] [PM]
Display posts:    
Reply to topic

Current time is: 03-Apr 04:43

All times are UTC ± 0



You cannot post new topics in this forum
You cannot reply to topics in this forum
You cannot edit your posts in this forum
You cannot delete your posts in this forum
You cannot vote in polls in this forum
You cannot attach files in this forum
You can download files in this forum
Верим фактам, а не вранью Путина! Факт, что Правительство ведёт Россию к истреблению.
Так как численность населения падает, даже не смотря на приток эмигрантов!
Русская нация вымирает и вырождается, смешиваясь с эмигрантами!
Факт, что военных и граждан предприятий заставляют голосовать за партию Единая Россия и Путина
ПОД СТРАХОМ УВОЛЬНЕНИЯ!
Нам не нужно Правительство, блокирующее личную жизнь, интернет, нарушающее сохранность данных.
Все эти действия финансируются за счёт народа!