Кто подставил кролика Роджера / Who Framed Roger Rabbit (Роберт Земекис / Robert Zemeckis) [1988, США, фэнтези, комедия, BDRip-AVC] Dub + 3x AVO (А. Гаврилов, А. Михалев, Ю. Живов) + MVO + Sub Rus, Eng, Spa, Fre + Eng

Reply to topic
DL-List and Torrent activity
Size:  4.8 GB   |    Registered:  4 years 4 months   |    Completed:  0 times

Seeder not seen: 3 years 7 months

 
   
 
 
Author Message

star21 ®

Gender: Female

Longevity: 4 years 5 months

Posts: 551945

Location: Екатеринбург

Post 01-Dec-2015 13:57

[Quote]


Кто подставил кролика Роджера
Who Framed Roger Rabbit
- Страна: США
Жанр: фэнтези, комедия
Год выпуска: 1988
Продолжительность: 01:43:45
Перевод: Профессиональный (дублированный)
Перевод 2: Авторский (одноголосый закадровый) А. Гаврилов
Перевод 3: Авторский (одноголосый закадровый) А. Михалев Отдельно
Перевод 4: Авторский (одноголосый закадровый) Ю. Живов Отдельно
Перевод 5: Профессиональный (многоголосый закадровый) Отдельно
Cубтитры: Rus, Eng, Spa, Fre
Оригинальная аудиодорожка: английский
Режиссер: Роберт Земекис | Robert Zemeckis
В ролях:
Боб Хоскинс | Bob Hoskins
Кристофер Ллойд | Christopher Lloyd

Джоанна Кэссиди, Чарльз Флайшер, Стабби Кэй, Алан Тилверн, Ричард ЛеПарментье, Лу Хирш, Бетси Брэнтли, Джоэл Силвер-ОписаниеЧастный детектив расследует загадочное преступление, в котором подозревается… мультипликационный персонаж кролик Роджер! Сыщик попадает в непредсказуемый мир, где его ожидают нарисованные злодеи с настоящими револьверами, говорящий автомобиль и соблазнительная мультяшная красотка. Наконец, на горизонте появляется мрачная фигура того, кто подставил кролика Роджера…-
Оскар, 1989 год
Победитель (4):
Лучший монтаж
Лучший монтаж звука
Лучшие визуальные эффекты
Награда за особые достижения

Сэмпл

[imdb]http://www.imdb.com/title/tt0096438[/imdb]
Качество видео: BDRip-AVC
Формат видео: MKV
Видео: AVC 4334 Kbps 1056 x 572 (1.846) 23.976 fps
Аудио: AC-3 192 Kbps 2 channels, 48.0 KHz Rus DUB
Аудио 2: AC-3 448 Kbps 6 channels, 48.0 KHz AVO А. Гаврилов
Аудио 3: AC-3 448 Kbps 6 channels, 48.0 KHz Eng
======= Отдельно=======
Аудио 4: AC-3 448 Kbps 6 channels, 48.0 KHz MVO
Аудио 5: AC-3 448 Kbps 6 channels, 48.0 KHz AVO А. Михалев
Аудио 6: AC-3 192 Kbps 2 channels, 48.0 KHz AVO Ю. Живов
Формат субтитров: softsub (SRT)

MediaInfo | Log

Log

x264 [info]: frame I:1199 Avg QP:18.18 size: 75619
x264 [info]: frame P:31454 Avg QP:19.83 size: 39666
x264 [info]: frame B:116616 Avg QP:21.83 size: 18159
x264 [info]: consecutive B-frames: 2.2% 2.7% 6.8% 21.4% 16.1% 31.1% 7.3% 3.1% 2.6% 2.4% 1.3% 1.1% 2.0%
x264 [info]: mb I I16..4: 4.5% 80.8% 14.7%
x264 [info]: mb P I16..4: 0.5% 19.5% 1.9% P16..4: 27.0% 31.5% 11.6% 1.2% 0.1% skip: 6.6%
x264 [info]: mb B I16..4: 0.1% 3.0% 0.2% B16..8: 37.6% 22.9% 5.1% direct: 7.6% skip:23.5% L0:47.0% L1:42.1% BI:11.0%
x264 [info]: 8x8 transform intra:88.9% inter:61.1%
x264 [info]: direct mvs spatial:100.0% temporal:0.0%
x264 [info]: coded y,uvDC,uvAC intra: 95.2% 93.1% 78.2% inter: 39.8% 35.8% 7.5%
x264 [info]: i16 v,h,dc,p: 39% 22% 7% 32%
x264 [info]: i8 v,h,dc,ddl,ddr,vr,hd,vl,hu: 8% 7% 10% 11% 14% 13% 13% 12% 13%
x264 [info]: i4 v,h,dc,ddl,ddr,vr,hd,vl,hu: 10% 7% 4% 9% 16% 15% 14% 11% 12%
x264 [info]: i8c dc,h,v,p: 48% 20% 16% 16%
x264 [info]: Weighted P-Frames: Y:9.5% UV:5.9%
x264 [info]: ref P L0: 38.9% 11.0% 19.1% 7.8% 6.5% 4.4% 4.0% 2.2% 2.1% 1.7% 1.8% 0.3% 0.0%
x264 [info]: ref B L0: 60.9% 15.8% 8.4% 4.6% 3.3% 2.7% 2.0% 1.3% 0.7% 0.3%
x264 [info]: ref B L1: 89.7% 10.3%
x264 [info]: kb/s:4440.86
x264 [total]: encoded 149269 frames, 7.91 fps, 4440.86 kb/s, duration 5:14:34.76
Format : Matroska
Format version : Version 4 / Version 2
File size : 4.01 GiB
Duration : 1h 43mn
Overall bit rate : 5 532 Kbps
Encoded date : UTC 2015-07-08 09:20:15
Writing application : mkvmerge v6.7.0 ('Back to the Ground') 32bit built on Jan 8 2014 15:03:17
Writing library : libebml v1.3.0 + libmatroska v1.4.1
Video
ID : 1
Format : AVC
Format/Info : Advanced Video Codec
Format profile : High@L4.1
Format settings, CABAC : Yes
Format settings, ReFrames : 11 frames
Codec ID : V_MPEG4/ISO/AVC
Duration : 1h 43mn
Bit rate : 4 334 Kbps
Width : 1 056 pixels
Height : 572 pixels
Display aspect ratio : 1.85:1
Frame rate mode : Constant
Frame rate : 23.976 fps
Color space : YUV
Chroma subsampling : 4:2:0
Bit depth : 8 bits
Scan type : Progressive
Bits/(Pixel*Frame) : 0.299
Stream size : 3.14 GiB (78%)
Title : Who Framed Roger Rabbit (1988) [rupeer.com]
Writing library : x264 core 146 r2538kMod 121396c
Encoding settings : cabac=1 / ref=11 / deblock=1:-2:-1 / analyse=0x3:0x133 / me=umh / subme=11 / psy=1 / fade_compensate=0.00 / psy_rd=1.00:0.05 / mixed_ref=1 / me_range=32 / chroma_me=1 / trellis=2 / 8x8dct=1 / cqm=0 / deadzone=21,11 / fast_pskip=0 / chroma_qp_offset=-3 / threads=12 / lookahead_threads=3 / sliced_threads=0 / nr=0 / decimate=1 / interlaced=0 / bluray_compat=0 / constrained_intra=0 / fgo=0 / bframes=12 / b_pyramid=2 / b_adapt=2 / b_bias=0 / direct=3 / weightb=1 / open_gop=0 / weightp=2 / keyint=250 / keyint_min=23 / scenecut=40 / intra_refresh=0 / rc_lookahead=80 / rc=crf / mbtree=0 / crf=18.9000 / qcomp=0.60 / qpmin=0 / qpmax=69 / qpstep=4 / vbv_maxrate=50000 / vbv_bufsize=62500 / crf_max=0.0 / nal_hrd=none / filler=0 / ip_ratio=1.40 / pb_ratio=1.30 / aq=3:0.90
Language : English
Default : Yes
Forced : No
Audio #1
ID : 2
Format : AC-3
Format/Info : Audio Coding 3
Mode extension : CM (complete main)
Format settings, Endianness : Big
Codec ID : A_AC3
Duration : 1h 43mn
Bit rate mode : Constant
Bit rate : 192 Kbps
Channel(s) : 2 channels
Channel positions : Front: L R
Sampling rate : 48.0 KHz
Compression mode : Lossy
Stream size : 142 MiB (3%)
Title : DUB
Language : Russian
Default : Yes
Forced : No
Audio #2
ID : 3
Format : AC-3
Format/Info : Audio Coding 3
Mode extension : CM (complete main)
Format settings, Endianness : Big
Codec ID : A_AC3
Duration : 1h 43mn
Bit rate mode : Constant
Bit rate : 448 Kbps
Channel(s) : 6 channels
Channel positions : Front: L C R, Side: L R, LFE
Sampling rate : 48.0 KHz
Compression mode : Lossy
Stream size : 332 MiB (8%)
Title : AVO [A. Gavrilov]
Language : Russian
Default : No
Forced : No
Audio #3
ID : 4
Format : AC-3
Format/Info : Audio Coding 3
Mode extension : CM (complete main)
Format settings, Endianness : Big
Codec ID : A_AC3
Duration : 1h 43mn
Bit rate mode : Constant
Bit rate : 448 Kbps
Channel(s) : 6 channels
Channel positions : Front: L C R, Side: L R, LFE
Sampling rate : 48.0 KHz
Compression mode : Lossy
Stream size : 332 MiB (8%)
Title : Original
Language : English
Default : No
Forced : No
Text #1
ID : 5
Format : UTF-8
Codec ID : S_TEXT/UTF8
Codec ID/Info : UTF-8 Plain Text
Title : Full
Language : Russian
Default : No
Forced : No
Text #2
ID : 6
Format : UTF-8
Codec ID : S_TEXT/UTF8
Codec ID/Info : UTF-8 Plain Text
Title : Full
Language : English
Default : No
Forced : No
Text #3
ID : 7
Format : UTF-8
Codec ID : S_TEXT/UTF8
Codec ID/Info : UTF-8 Plain Text
Title : Full
Language : Spanish
Default : No
Forced : No
Text #4
ID : 8
Format : UTF-8
Codec ID : S_TEXT/UTF8
Codec ID/Info : UTF-8 Plain Text
Title : Full
Language : French
Default : No
Forced : No
Menu
00:00:00.000 : en:00:00:00.000
00:05:33.458 : en:00:05:33.458
00:09:44.626 : en:00:09:44.626
00:14:06.137 : en:00:14:06.137
00:20:40.614 : en:00:20:40.614
00:28:53.023 : en:00:28:53.023
00:34:07.128 : en:00:34:07.128
00:41:12.095 : en:00:41:12.095
00:46:27.994 : en:00:46:27.994
00:49:36.891 : en:00:49:36.891
00:57:14.014 : en:00:57:14.014
01:03:33.435 : en:01:03:33.435
01:07:24.374 : en:01:07:24.374
01:12:08.783 : en:01:12:08.783
01:16:45.810 : en:01:16:45.810
01:22:05.921 : en:01:22:05.921
01:28:49.032 : en:01:28:49.032
01:34:23.199 : en:01:34:23.199

Скриншоты

-


To download the content you need:
1. Download and install torrent client [for Windows] or for mobile system
2. Click on [Download]
Attention.
If the test YOU are NOT a ROBOT - does not work, then You are using an outdated browser.
Install the current browser and click on [Download]

Do not work with Yandex browser. Uploading files to them is erroneous.
Security: torrent client is allowed by Kaspersky.

[en.asmlocator.ru].t4446.torrent 
Torrent: Registered [ 2015-12-01 13:55 ] · E5D463ACE6063600B7A665582B215622374DE31B

Download .torrent

Download

25 KB

Status: checked
Completed: 0 times
Size: 4.8 GB
terms.php
[Profile] [PM]
Display posts:    
Reply to topic

Current time is: 10-Apr 08:21

All times are UTC ± 0



You cannot post new topics in this forum
You cannot reply to topics in this forum
You cannot edit your posts in this forum
You cannot delete your posts in this forum
You cannot vote in polls in this forum
You cannot attach files in this forum
You can download files in this forum
Верим фактам, а не вранью Путина! Факт, что Правительство ведёт Россию к истреблению.
Так как численность населения падает, даже не смотря на приток эмигрантов!
Русская нация вымирает и вырождается, смешиваясь с эмигрантами!
Факт, что военных и граждан предприятий заставляют голосовать за партию Единая Россия и Путина
ПОД СТРАХОМ УВОЛЬНЕНИЯ!
Нам не нужно Правительство, блокирующее личную жизнь, интернет, нарушающее сохранность данных.
Все эти действия финансируются за счёт народа!