Молодые стрелки / Молодые мстители / Young Guns (Кристофер Кэйн / Christopher Cain) [1988, США, вестерн, BDRip] AVO (Павел Санаев) + Original Eng

Reply to topic
DL-List and Torrent activity
Size:  1.47 GB   |    Registered:  4 years 4 months   |    Completed:  0 times

Seeder not seen: Never

 
   
 
 
Author Message

star21 ®

Gender: Female

Longevity: 4 years 5 months

Posts: 551945

Location: Екатеринбург

Post 01-Dec-2015 13:57

[Quote]

Молодые стрелки / Молодые мстители / Young Guns Страна: CША
Жанр: Вестерн
Год выпуска: 1988
Продолжительность: 01:46:43
Перевод: Авторский (одноголосый закадровый) Павел Санаев
Cубтитры: нет
Оригинальная аудиодорожка: английский
Режиссер: Кристофер Кэйн / Christopher Cain
В ролях:Эмилио Эстевез, Кифер Сазерленд, Лу Дайэмонд Филлипс, Чарли Шин, Джек Пэланс, Дермот Малруни, Кэйси Семашко, Теренс Стэмп, Терри О`Куинн, Шарон Томас, Джеффри Блейк, Элис Картер, Брайан Кит, Томас Колэуэй, Патрик Вейн, Джеймс Дж. Робинсон, Сэм Гони, Коуди Пэланс, Джон Фуско, Аллен Келлер, Крэйг Эриксон, Джереми Лепард, Дэнни Камин, Ирби Смит, Пэт Ли, Гари Канин, Форрест Броадли, Алан Тобин, Джои Хэнкс
Описание:Фильм основанный на биографии известного американского преступника Билли Кида. Нью-Мексико, 1877-1878 г.г. Джон Танстэлл, образованный англичанин и владелец ранчо в округе Линкольн, нанимает упрямых молодых ковбоев — «Дока», Чавеса, «Дика», «Грязного Стива» и Чарли, которые живут и работают как одна семья. Последним на ранчо приходит Билли. В это время Танстеллу противостоит местный крупный землевладелец — Мёрфи. Их люди регулярно дерутся, и конфликт доходит до убийства англичанина. Билли с товарищами жаждут мести, они просят помощи у друга-юриста Алекса Максвина, который выступает на их стороне и выписывает ордер на арест головорезов Мёрфи. В основе этой истории — реальные события «Линкольнской фермерской войны», которая началась из-за разногласий между выходцами из Англии и Ирландии. Ирландцы контролировали рынок сельхозпродуктов в штате, а англичанин Танстелл не хотел продавать им свою землю. Вот в чём основа конфликта, из которого выросли «регуляторы» (англ. «regulators») и банда «Кида». Билли быстро становится предводителем и убивает многих людей, вставших на пути его отряда, который в скором времени под влиянием коррупции Мёрфи был объявлен «вне закона» и назван бандой. Однако молодые стрелки становятся популярными, и ни юристы с шерифами, ни даже армия США не могут найти на них расправу. Банда прячется какое-то время перед тем, как участвовать в окончательной перестрелке из дома Алекса на главной улице Линкольна... Некоторым удается уйти от преследования, что дает возможность продолжить историю в сиквеле «Молодые стрелки 2».
Доп. информация: Русская дорога из моей личной коллекции.
Сэмпл: http://multi-up.com/1057630
Качество видео: BDRip
Спасибо
Формат видео: AVI
Видео: XviD, 720x400 (16:9), 23.976 fps, 1569 kbps avg
Аудио: Russian AC3 Dolby Digital, 48 kHz, 2/0 (L,R) ch, 192.00 kbps avg
Аудио 2: English AC3 Dolby Digital, 48 kHz, 2/0 (L,R) ch, 192.00 kbps avg

MediaInfo

General
Complete name : E:\Young Guns_1988\Young Guns_1988.BDRip.AVO.Sanaev.avi
Format : AVI
Format/Info : Audio Video Interleave
File size : 1.47 GiB
Duration : 1h 46mn
Overall bit rate : 1 968 Kbps
Movie name : Молодые стрелки
Director : derdevil13
Writing application : VirtualDubModRus 1.5.10.2 (build 2542/release)
Writing library : VirtualDubMod build 2542/release
Video
ID : 0
Format : MPEG-4 Visual
Format profile : Advanced Simple@L5
Format settings, BVOP : 1
Format settings, QPel : No
Format settings, GMC : No warppoints
Format settings, Matrix : Default (MPEG)
Codec ID : XVID
Codec ID/Hint : XviD
Duration : 1h 46mn
Bit rate : 1 570 Kbps
Width : 720 pixels
Height : 400 pixels
Display aspect ratio : 16:9
Frame rate : 23.976 fps
Color space : YUV
Chroma subsampling : 4:2:0
Bit depth : 8 bits
Scan type : Progressive
Compression mode : Lossy
Bits/(Pixel*Frame) : 0.227
Stream size : 1.17 GiB (80%)
Writing library : XviD 1.2.1 (UTC 2008-12-04)
Audio #1
ID : 1
Format : AC-3
Format/Info : Audio Coding 3
Mode extension : CM (complete main)
Format settings, Endianness : Big
Codec ID : 2000
Duration : 1h 46mn
Bit rate mode : Constant
Bit rate : 192 Kbps
Channel(s) : 2 channels
Channel positions : Front: L R
Sampling rate : 48.0 KHz
Bit depth : 16 bits
Compression mode : Lossy
Stream size : 147 MiB (10%)
Alignment : Split accross interleaves
Interleave, duration : 42 ms (1.00 video frame)
Interleave, preload duration : 500 ms
Audio #2
ID : 2
Format : AC-3
Format/Info : Audio Coding 3
Mode extension : CM (complete main)
Format settings, Endianness : Big
Codec ID : 2000
Duration : 1h 46mn
Bit rate mode : Constant
Bit rate : 192 Kbps
Channel(s) : 2 channels
Channel positions : Front: L R
Sampling rate : 48.0 KHz
Bit depth : 16 bits
Compression mode : Lossy
Stream size : 147 MiB (10%)
Alignment : Split accross interleaves
Interleave, duration : 42 ms (1.00 video frame)
Interleave, preload duration : 500 ms

Скриншоты

To download the content you need:
1. Download and install torrent client [for Windows] or for mobile system
2. Click on [Download]
Attention.
If the test YOU are NOT a ROBOT - does not work, then You are using an outdated browser.
Install the current browser and click on [Download]

Do not work with Yandex browser. Uploading files to them is erroneous.
Security: torrent client is allowed by Kaspersky.

[en.asmlocator.ru].t4445.torrent 
Torrent: Registered [ 2015-12-01 13:55 ] · CD71426031F3477A3A1DB001890C092CD1E16415

Download .torrent

Download

15 KB

Status: checked
Completed: 0 times
Size: 1.47 GB
terms.php
[Profile] [PM]
Display posts:    
Reply to topic

Current time is: 10-Apr 08:55

All times are UTC ± 0



You cannot post new topics in this forum
You cannot reply to topics in this forum
You cannot edit your posts in this forum
You cannot delete your posts in this forum
You cannot vote in polls in this forum
You cannot attach files in this forum
You can download files in this forum
Верим фактам, а не вранью Путина! Факт, что Правительство ведёт Россию к истреблению.
Так как численность населения падает, даже не смотря на приток эмигрантов!
Русская нация вымирает и вырождается, смешиваясь с эмигрантами!
Факт, что военных и граждан предприятий заставляют голосовать за партию Единая Россия и Путина
ПОД СТРАХОМ УВОЛЬНЕНИЯ!
Нам не нужно Правительство, блокирующее личную жизнь, интернет, нарушающее сохранность данных.
Все эти действия финансируются за счёт народа!