Молодые стрелки 2 / Young Guns II (Джеф Мерфи / Geoff Murphy) [1990, США, вестерн, HDTVRip] MVO (SDI Media)

Reply to topic
DL-List and Torrent activity
Size:  1.46 GB   |    Registered:  4 years 3 months   |    Completed:  0 times

Seeder not seen: 1 year 10 months

 
   
 
 
Author Message

star21 ®

Gender: Female

Longevity: 4 years 4 months

Posts: 551945

Location: Екатеринбург

Post 01-Dec-2015 13:57

[Quote]

Молодые стрелки 2 / Young Guns II Страна: США
Жанр: вестерн
Год выпуска: 1990
Продолжительность: 01:44:00
Перевод: Профессиональный (многоголосый закадровый) SDI Media
Cубтитры: нет
Оригинальная аудиодорожка: нет
Режиссер: Джеф Мерфи / Geoff Murphy
В ролях:Эмилио Эстевез, Кифер Сазерленд, Лу Даймонд Филлипс, Кристиан Слэйтер, Уильям Л. Петерсен, Алан Рак, Р. Д. Колл, Джеймс Коберн, Бэлтазар Гетти, Джек Кихоу, Роберт Неппер, Том Курландер, Вигго Мортенсен, Леон Риппи, Трэйси Уолтер, Роберт Харви, Томас Берд, Бад Стаут, Кэрри Валлум, Бутс Саутерленд, Расти Ли, Марк Силверштейн, Уолтер Фельдбуш, Джон Фуско, Майкл Эйланд, Альберт Тружильо, Дон ’Текс’ Кларк, Эд Адамс, Алина Аренал
Описание: В Нью-Мексико по-прежнему властвуют законы пограничных территорий, а точнее, царит полное беззаконие. Единственный, кто готов сражаться за справедливость - легендарный Билли Кид, безжалостный к врагам и не знающий, что такое промах. Вместе с новым приятелем Дэйвом Билли вытаскивает из тюрьмы оставшихся в живых друзей: Дока и Чавеса. Слава о подвигах парней вновь гремит на всю Америку. Тогда местные власти и богачи назначают за их головы щедрую награду. "Нужно нанять одного вора, чтобы поймать другого", - сказал Джон С. Чизум, местный король-скотопромышленник, и заплатил Пэту Барретту, одному из прежних партнеров Билли, 1000$, чтобы он убил прежнего босса...
Доп. информация: Русская дорога из моей личной коллекции.
Сэмпл: http://multi-up.com/1057662
Качество видео: HDTVRip
Спасибо
Формат видео: AVI
Видео: 720x304 (2.35:1), 23.976 fps, XviD build 50, 1816 kbps avg, 0.35 bit/pixel
Аудио: Russian AC3 Dolby Digital, 48 kHz, 2/0 (L,R) ch, 192.00 kbps avg

MediaInfo

General
Complete name : E:\Young Guns II_1990\Young Guns II_1990.HDTVRip.MVO.SDI Media.avi
Format : AVI
Format/Info : Audio Video Interleave
File size : 1.46 GiB
Duration : 1h 44mn
Overall bit rate : 2 016 Kbps
Writing application : VirtualDubModRus 1.5.10.2 (build 2542/release)
Writing library : VirtualDubMod build 2542/release
Video
ID : 0
Format : MPEG-4 Visual
Format profile : Advanced Simple@L5
Format settings, BVOP : 1
Format settings, QPel : No
Format settings, GMC : No warppoints
Format settings, Matrix : Custom
Codec ID : XVID
Codec ID/Hint : XviD
Duration : 1h 44mn
Bit rate : 1 815 Kbps
Width : 720 pixels
Height : 304 pixels
Display aspect ratio : 2.35:1
Frame rate : 23.976 fps
Color space : YUV
Chroma subsampling : 4:2:0
Bit depth : 8 bits
Scan type : Progressive
Compression mode : Lossy
Bits/(Pixel*Frame) : 0.346
Stream size : 1.32 GiB (90%)
Writing library : XviD 1.2.1 (UTC 2008-12-04)
Audio
ID : 1
Format : AC-3
Format/Info : Audio Coding 3
Mode extension : CM (complete main)
Format settings, Endianness : Big
Codec ID : 2000
Duration : 1h 43mn
Bit rate mode : Constant
Bit rate : 192 Kbps
Channel(s) : 2 channels
Channel positions : Front: L R
Sampling rate : 48.0 KHz
Bit depth : 16 bits
Compression mode : Lossy
Stream size : 143 MiB (10%)
Alignment : Split accross interleaves
Interleave, duration : 42 ms (1.00 video frame)
Interleave, preload duration : 500 ms

Скриншоты

To download the content you need:
1. Download and install torrent client [for Windows] or for mobile system
2. Click on [Download]
Attention.
If the test YOU are NOT a ROBOT - does not work, then You are using an outdated browser.
Install the current browser and click on [Download]

Do not work with Yandex browser. Uploading files to them is erroneous.
Security: torrent client is allowed by Kaspersky.

[en.asmlocator.ru].t4444.torrent 
Torrent: Registered [ 2015-12-01 13:55 ] · 536E3A455EBE9AA626DB0AB1850E1DDFA71ADB52

Download .torrent

Download

15 KB

Status: checked
Completed: 0 times
Size: 1.46 GB
terms.php
[Profile] [PM]
Display posts:    
Reply to topic

Current time is: 30-Mar 00:53

All times are UTC ± 0



You cannot post new topics in this forum
You cannot reply to topics in this forum
You cannot edit your posts in this forum
You cannot delete your posts in this forum
You cannot vote in polls in this forum
You cannot attach files in this forum
You can download files in this forum
Верим фактам, а не вранью Путина! Факт, что Правительство ведёт Россию к истреблению.
Так как численность населения падает, даже не смотря на приток эмигрантов!
Русская нация вымирает и вырождается, смешиваясь с эмигрантами!
Факт, что военных и граждан предприятий заставляют голосовать за партию Единая Россия и Путина
ПОД СТРАХОМ УВОЛЬНЕНИЯ!
Нам не нужно Правительство, блокирующее личную жизнь, интернет, нарушающее сохранность данных.
Все эти действия финансируются за счёт народа!