Американский ниндзя 3: Кровавая охота / American Ninja 3: Blood Hunt (Седрик Сандстром / Cedric Sundstrom) [1989, США, Канада, ЮАР, боевик, драма, BDRip] MVO (СТС) + Original Eng + sub Eng

Reply to topic
DL-List and Torrent activity
Size:  1.45 GB   |    Registered:  4 years 4 months   |    Completed:  0 times

Seeder not seen: Never

 
   
 
 
Author Message

star21 ®

Gender: Female

Longevity: 4 years 5 months

Posts: 551945

Location: Екатеринбург

Post 01-Dec-2015 13:56

[Quote]

Американский ниндзя 3: Кровавая охота / American Ninja 3: Blood Hunt- Год выпуска: 1989
Страна: США, Канада, ЮАР
Жанр: боевик, драма
Продолжительность: 01:29:52
Перевод: Профессиональный (многоголосый, закадровый) СТС
+ Оригинальная звуковая дорожка
Субтитры: Английские (внешние srt*)-Режиссер: Седрик Сандстром / Cedric Sundstrom
В ролях: Дэвид Брэдли, Стив Джеймс, Марджо Гортнер, Мишель Б. Чан, Иегуда Эфрони, Кэлвин Джанг, Эдриэнн Пирс, Ивэн Дж. Клиссер, Грант Престон, Майкл Хафф
О фильме: Шон Дэвидсон, потерявший родителей и воспитанный учителем-японцем в традициях ниндзя, приезжает на международный турнир каратэ. Злоумышленники разрабатывают здесь в секретной лаборатории смертоносный вирус, чтобы испытать его на победителе чемпионата. Но американский ниндзя и двое его друзей сокрушают лабораторию, спасая мир.-Релиз:
Автор: yaroslaigor
Качество: BDRip (источник: / BD-Remux / 1080p)
Формат: AVI
Видео: 704x384 (1.83:1), 23.976 fps, XviD build 65 ~1916 kbps avg, 0.29 bit/pixel
Аудио #1: 48 kHz, AC3 Dolby Digital, 2/0 (L,R), ~192.00 kbps avg rus
Аудио #2: 48 kHz, AC3 Dolby Digital, 2/0 (L,R), ~192.00 kbps avg eng
Размер: 1488.45 Mb (1/3 DVD-R)
Скачать: Семпл-

Кадры из фильма


-

Mi

Формат : AVI
Формат/Информация : Audio Video Interleave
Размер файла : 1,45 Гбайт
Продолжительность : 1 ч. 29 м.
Общий поток : 2315 Кбит/сек
Название фильма : Американский ниндзя 3: Кровавая охота / American Ninja 3: Blood Hunt (1989) BDRip
Режиссёр : yaroslaigor
Жанр : боевик, драма
Программа кодирования : VirtualDubMod 1.5.10.2 (build 2542/release)
Примечание : 09.07.2015
Видео
Идентификатор : 0
Формат : MPEG-4 Visual
Профиль формата : Advanced Simple@L5
Параметр BVOP формата : 1
Параметр QPel формата : Нет
Параметр GMC формата : Без точки перехода
Параметр матрицы формата : Выборочная
Идентификатор кодека : XVID
Идентификатор кодека/Подсказка : XviD
Продолжительность : 1 ч. 29 м.
Битрейт : 1917 Кбит/сек
Ширина : 704 пикселя
Высота : 384 пикселя
Соотношение сторон : 1,85:1
Частота кадров : 23,976 кадра/сек
Цветовое пространство : YUV
Субдискретизация насыщенности : 4:2:0
Битовая глубина : 8 бит
Тип развёртки : Прогрессивная
Метод сжатия : С потерями
Бит/(Пиксели*Кадры) : 0.296
Размер потока : 1,20 Гбайт (83%)
Библиотека кодирования : XviD 65
Аудио #1
Идентификатор : 1
Формат : AC-3
Формат/Информация : Audio Coding 3
Расширение режима : CM (complete main)
Параметр Endianness формата : Big
Идентификатор кодека : 2000
Продолжительность : 1 ч. 29 м.
Вид битрейта : Постоянный
Битрейт : 192 Кбит/сек
Каналы : 2 канала
Расположение каналов : Front: L R
Частота : 48,0 КГц
Битовая глубина : 16 бит
Метод сжатия : С потерями
Размер потока : 123 Мбайт (8%)
Выравнивание : Разделение по промежуткам
Продолжительность промежутка : 42 мс. (1,00 видеокадр)
Время предзагрузки промежутка : 500 мс.
Аудио #2
Идентификатор : 2
Формат : AC-3
Формат/Информация : Audio Coding 3
Расширение режима : CM (complete main)
Параметр Endianness формата : Big
Идентификатор кодека : 2000
Продолжительность : 1 ч. 29 м.
Вид битрейта : Постоянный
Битрейт : 192 Кбит/сек
Каналы : 2 канала
Расположение каналов : Front: L R
Частота : 48,0 КГц
Битовая глубина : 16 бит
Метод сжатия : С потерями
Размер потока : 123 Мбайт (8%)
Выравнивание : Разделение по промежуткам
Продолжительность промежутка : 42 мс. (1,00 видеокадр)
Время предзагрузки промежутка : 500 мс.
-

To download the content you need:
1. Download and install torrent client [for Windows] or for mobile system
2. Click on [Download]
Attention.
If the test YOU are NOT a ROBOT - does not work, then You are using an outdated browser.
Install the current browser and click on [Download]

Do not work with Yandex browser. Uploading files to them is erroneous.
Security: torrent client is allowed by Kaspersky.

[en.asmlocator.ru].t4440.torrent 
Torrent: Registered [ 2015-12-01 13:55 ] · 2C38DEE1E235CBB40145CFD641E4029F73077DCB

Download .torrent

Download

15 KB

Status: checked
Completed: 0 times
Size: 1.45 GB
terms.php
[Profile] [PM]
Display posts:    
Reply to topic

Current time is: 10-Apr 09:23

All times are UTC ± 0



You cannot post new topics in this forum
You cannot reply to topics in this forum
You cannot edit your posts in this forum
You cannot delete your posts in this forum
You cannot vote in polls in this forum
You cannot attach files in this forum
You can download files in this forum
Верим фактам, а не вранью Путина! Факт, что Правительство ведёт Россию к истреблению.
Так как численность населения падает, даже не смотря на приток эмигрантов!
Русская нация вымирает и вырождается, смешиваясь с эмигрантами!
Факт, что военных и граждан предприятий заставляют голосовать за партию Единая Россия и Путина
ПОД СТРАХОМ УВОЛЬНЕНИЯ!
Нам не нужно Правительство, блокирующее личную жизнь, интернет, нарушающее сохранность данных.
Все эти действия финансируются за счёт народа!