Леди Джейн / Lady Jane (Тревор Нанн / Trevor Nunn) [1986, Великобритания, исторический, драма, WEB-DLRip] MVO (Paramount channel) + DVO (НТВ +)

Reply to topic
DL-List and Torrent activity
Size:  2.1 GB   |    Registered:  4 years 3 months   |    Completed:  1 time

Seeder not seen: 5 months 11 days

 
   
 
 
Author Message

star21 ®

Gender: Female

Longevity: 4 years 4 months

Posts: 551945

Location: Екатеринбург

Post 01-Dec-2015 13:56

[Quote]

Леди Джейн / Lady Jane Страна: Великобритания
Жанр: исторический, драма
Год выпуска: 1986
Продолжительность: 02:21:35
Перевод: Профессиональный (многоголосый закадровый) Paramount channel
Перевод 2: Профессиональный (двухголосый закадровый) НТВ +
Тест читали: Ольга Голованова, Александр Воронов
Cубтитры: нет
Оригинальная аудиодорожка: нет
Режиссер: Тревор Нанн / Trevor Nunn
В ролях: Хелена Бонэм Картер, Кэри Элвис, Майкл Хордерн, Джейн Лапотэйр, Сара Кестелман, Патрик Стюарт, Джосс Акленд, Йен Хогг, Ли Монтегю, Дэвид Уоллер, Пип Торренс, Мэттью Гиннесс, Эндрю Бикнелл, Уильям Морган Шеппард, Зела Кларк, Джанет Хенфри, Брайан Пойсер, Филип Восс, Уоррен Сэйр, Роберт Патт, Стюарт Харвуд, Ричард Мур, Майкл Голди, Дениза Александер мл., Габор Вернон, Джон Эбботт, Клайд Поллитт, Кэрол Хейман, Никки Кройдон, Филиппа Люче, Крисс Хили, Аделе Андерсон, Анна Гилберт, Ричард Джонсон, Джилл Беннетт, Джон Вуд
Описание: Фильм основан на реальных событиях из жизни леди Джейн Грей, внучатой племянницы Генриха VIII. В 1547 году умер Генрих VIII. Английское Королевство осталось без монарха. Единственный сын короля и наследник престола, несовершеннолетний Эдуард, убеждённый протестант, смертельно болен, и дни его сочтены. Протестанты не желают больше видеть на престоле католиков и готовы пойти на всё, чтобы короновать «своего человека». Их неожиданный выбор падает на скромную дочь герцога Саффолка, кузину короля Эдуарда VI , Леди Джейн Грэй. По плану протестантов Джейн выдадут замуж за Гилфорда Дадли — сына самого влиятельного человека Англии, Джона Дадли, который и станет тайным правителем Британии. По загадочной иронии судьбы у древней Англии внезапно появился уникальный шанс получить великолепную, не по годам мудрую королеву, а у Гилфорда — прекрасную и любящую жену. Но всё это было слишком хорошо, чтобы быть правдой, а посему этой удивительной истории было суждено закончится быстро, жестоко и кроваво…
Доп. информация: Собственный рип. Русские звуковые дороги из моей личной коллекции. Работа со звуком alex7691.
Сэмпл: http://multi-up.com/1057960
Качество видео: WEB-DLRip
Исходник: Lady Jane 1986 1080p WEB DL AAC2 0 H264 COOL
Формат видео: AVI
Видео: XviD, 720x400 (16:9), 23.976 fps, 1722 kbps avg
Аудио: Russian AC3 Dolby Digital, 48 kHz, 2/0 (L,R) ch, 192.00 kbps avg (Paramount channel)
Аудио 2: Russian AC3 Dolby Digital, 48 kHz, 2/0 (L,R) ch, 192.00 kbps avg (НТВ +)

MediaInfo

General
Complete name : E:\Lady.Jane.1986\Lady.Jane.1986.WEB-DLRip.MVO.DVO.avi
Format : AVI
Format/Info : Audio Video Interleave
Format profile : OpenDML
File size : 2.10 GiB
Duration : 2h 21mn
Overall bit rate : 2 125 Kbps
Writing application : VirtualDubModRus 1.5.10.2 (build 2542/release)
Writing library : VirtualDubMod build 2542/release
Video
ID : 0
Format : MPEG-4 Visual
Format profile : Advanced Simple@L5
Format settings, BVOP : 1
Format settings, QPel : No
Format settings, GMC : No warppoints
Format settings, Matrix : Default (MPEG)
Codec ID : XVID
Codec ID/Hint : XviD
Duration : 2h 21mn
Bit rate : 1 722 Kbps
Width : 720 pixels
Height : 400 pixels
Display aspect ratio : 16:9
Frame rate : 23.976 fps
Color space : YUV
Chroma subsampling : 4:2:0
Bit depth : 8 bits
Scan type : Progressive
Compression mode : Lossy
Bits/(Pixel*Frame) : 0.249
Stream size : 1.70 GiB (81%)
Writing library : XviD 73
Audio #1
ID : 1
Format : AC-3
Format/Info : Audio Coding 3
Mode extension : CM (complete main)
Format settings, Endianness : Big
Codec ID : 2000
Duration : 2h 21mn
Bit rate mode : Constant
Bit rate : 192 Kbps
Channel(s) : 2 channels
Channel positions : Front: L R
Sampling rate : 48.0 KHz
Bit depth : 16 bits
Compression mode : Lossy
Stream size : 194 MiB (9%)
Alignment : Split accross interleaves
Interleave, duration : 42 ms (1.00 video frame)
Interleave, preload duration : 500 ms
Audio #2
ID : 2
Format : AC-3
Format/Info : Audio Coding 3
Mode extension : CM (complete main)
Format settings, Endianness : Big
Codec ID : 2000
Duration : 2h 21mn
Bit rate mode : Constant
Bit rate : 192 Kbps
Channel(s) : 2 channels
Channel positions : Front: L R
Sampling rate : 48.0 KHz
Bit depth : 16 bits
Compression mode : Lossy
Stream size : 194 MiB (9%)
Alignment : Split accross interleaves
Interleave, duration : 42 ms (1.00 video frame)
Interleave, preload duration : 500 ms

Скриншоты

To download the content you need:
1. Download and install torrent client [for Windows] or for mobile system
2. Click on [Download]
Attention.
If the test YOU are NOT a ROBOT - does not work, then You are using an outdated browser.
Install the current browser and click on [Download]

Do not work with Yandex browser. Uploading files to them is erroneous.
Security: torrent client is allowed by Kaspersky.

[en.asmlocator.ru].t4439.torrent 
Torrent: Registered [ 2015-12-01 13:55 ] · D27DF97FD189D59F6D0543B9FFBF549724E9F659

Download .torrent

Download

11 KB

Status: checked
Completed: 1 times
Size: 2.1 GB
terms.php
[Profile] [PM]
Display posts:    
Reply to topic

Current time is: 31-Mar 16:36

All times are UTC ± 0



You cannot post new topics in this forum
You cannot reply to topics in this forum
You cannot edit your posts in this forum
You cannot delete your posts in this forum
You cannot vote in polls in this forum
You cannot attach files in this forum
You can download files in this forum
Верим фактам, а не вранью Путина! Факт, что Правительство ведёт Россию к истреблению.
Так как численность населения падает, даже не смотря на приток эмигрантов!
Русская нация вымирает и вырождается, смешиваясь с эмигрантами!
Факт, что военных и граждан предприятий заставляют голосовать за партию Единая Россия и Путина
ПОД СТРАХОМ УВОЛЬНЕНИЯ!
Нам не нужно Правительство, блокирующее личную жизнь, интернет, нарушающее сохранность данных.
Все эти действия финансируются за счёт народа!