Американский ниндзя 3: Кровавая охота / American Ninja 3: Blood Hunt (Седрик Сандстром / Cedric Sundstrom) [1989, США, Канада, ЮАР, боевик, драма, BDRip] DVO (НТВ+) + AVO (В. Дохалов) + AVO (Ю. Немахов)

Reply to topic
DL-List and Torrent activity
Size:  1.48 GB   |    Registered:  4 years 4 months   |    Completed:  0 times

Seeder not seen: Never

 
   
 
 
Author Message

star21 ®

Gender: Female

Longevity: 4 years 4 months

Posts: 551945

Location: Екатеринбург

Post 01-Dec-2015 13:56

[Quote]

Американский ниндзя 3: Кровавая охота / American Ninja 3: Blood Hunt
Страна: США, Канада, ЮАР
Жанр: боевик, драма
Год выпуска: 1989
Продолжительность: 01:29:52
Перевод: Профессиональный (двухголосый закадровый) НТВ+
Перевод 2: Авторский (одноголосый закадровый) В. Дохалов
Перевод 3: Авторский (одноголосый закадровый) Ю. Немахов
Cубтитры: нет
Режиссер: Седрик Сандстром / Cedric Sundstrom
В ролях: Дэвид Брэдли, Стив Джеймс, Марджо Гортнер, Мишель Б. Чан, Иегуда Эфрони, Кэлвин Джанг, Эдриэнн Пирс, Ивэн Дж. Клиссер, Грант Престон, Майкл Хафф
Описание: Шон Дэвидсон, потерявший родителей и воспитанный учителем-японцем в традициях ниндзя, приезжает на международный турнир каратэ. Злоумышленники разрабатывают здесь в секретной лаборатории смертоносный вирус, чтобы испытать его на победителе чемпионата. Но американский ниндзя и двое его друзей сокрушают лабораторию, спасая мир.
Сэмпл: http://multi-up.com/1058044-Автор: BEN-BEN
Релиз:
Качество видео: BDRip (Исходник: rainbow.n / BDRemux 1080p)
Формат видео: AVI
Видео: 704x384 (1.83:1), 23.976 fps, XviD build 50 ~1947 kbps avg, 0.30 bit/pixel
Аудио: 48 kHz, MPEG Layer 3, 2 ch, ~128.00 kbps avg - НТВ+
Аудио 2: 48 kHz, MPEG Layer 3, 2 ch, ~128.00 kbps avg - В. Дохалов
Аудио 3: 48 kHz, MPEG Layer 3, 2 ch, ~128.00 kbps avg - Ю. Немахов

MediaInfo

Общее
Полное имя : C:\Documents and Settings\User\Рабочий стол\Кинозал.тв\American Ninja 3.Blood Hunt.1989.BDRip.BEN-BEN.avi
Формат : AVI
Формат/Информация : Audio Video Interleave
Размер файла : 1,48 Гбайт
Продолжительность : 1 ч. 29 м.
Общий поток : 2352 Кбит/сек
Программа кодирования : VirtualDubMod 1.5.10.2 (build 2540/release)
Библиотека кодирования : VirtualDubMod build 2540/release
Видео
Идентификатор : 0
Формат : MPEG-4 Visual
Профиль формата : Advanced Simple@L5
Параметр BVOP формата : 1
Параметр QPel формата : Нет
Параметр GMC формата : Без точки перехода
Параметр матрицы формата : Выборочная
Идентификатор кодека : XVID
Идентификатор кодека/Подсказка : XviD
Продолжительность : 1 ч. 29 м.
Битрейт : 1950 Кбит/сек
Ширина : 704 пикселя
Высота : 384 пикселя
Соотношение сторон : 1,85:1
Частота кадров : 23,976 кадра/сек
Цветовое пространство : YUV
Субдискретизация насыщенности : 4:2:0
Битовая глубина : 8 бит
Тип развёртки : Прогрессивная
Метод сжатия : С потерями
Бит/(Пиксели*Кадры) : 0.301
Размер потока : 1,22 Гбайт (83%)
Библиотека кодирования : XviD 1.2.1 (UTC 2008-12-04)
Аудио #1
Идентификатор : 1
Формат : MPEG Audio
Версия формата : Version 1
Профиль формата : Layer 3
Идентификатор кодека : 55
Идентификатор кодека/Подсказка : MP3
Продолжительность : 1 ч. 29 м.
Вид битрейта : Постоянный
Битрейт : 128 Кбит/сек
Каналы : 2 канала
Частота : 48,0 КГц
Метод сжатия : С потерями
Размер потока : 82,3 Мбайт (5%)
Выравнивание : Соединение по промежуткам
Продолжительность промежутка : 42 мс. (1,00 видеокадр)
Время предзагрузки промежутка : 504 мс.
Библиотека кодирования : LAME3.99r
Настройки программы : -m s -V 4 -q 2 -lowpass 17 -b 128
Аудио #2
Идентификатор : 2
Формат : MPEG Audio
Версия формата : Version 1
Профиль формата : Layer 3
Идентификатор кодека : 55
Идентификатор кодека/Подсказка : MP3
Продолжительность : 1 ч. 29 м.
Вид битрейта : Постоянный
Битрейт : 128 Кбит/сек
Каналы : 2 канала
Частота : 48,0 КГц
Метод сжатия : С потерями
Размер потока : 82,2 Мбайт (5%)
Выравнивание : Соединение по промежуткам
Продолжительность промежутка : 42 мс. (1,00 видеокадр)
Время предзагрузки промежутка : 504 мс.
Библиотека кодирования : LAME3.99r
Настройки программы : -m s -V 4 -q 2 -lowpass 17 -b 128
Аудио #3
Идентификатор : 3
Формат : MPEG Audio
Версия формата : Version 1
Профиль формата : Layer 3
Идентификатор кодека : 55
Идентификатор кодека/Подсказка : MP3
Продолжительность : 1 ч. 29 м.
Вид битрейта : Постоянный
Битрейт : 128 Кбит/сек
Каналы : 2 канала
Частота : 48,0 КГц
Метод сжатия : С потерями
Размер потока : 82,3 Мбайт (5%)
Выравнивание : Соединение по промежуткам
Продолжительность промежутка : 42 мс. (1,00 видеокадр)
Время предзагрузки промежутка : 504 мс.
Библиотека кодирования : LAME3.99r
Настройки программы : -m s -V 4 -q 2 -lowpass 17 -b 128

Скриншоты


To download the content you need:
1. Download and install torrent client [for Windows] or for mobile system
2. Click on [Download]
Attention.
If the test YOU are NOT a ROBOT - does not work, then You are using an outdated browser.
Install the current browser and click on [Download]

Do not work with Yandex browser. Uploading files to them is erroneous.
Security: torrent client is allowed by Kaspersky.

[en.asmlocator.ru].t4435.torrent 
Torrent: Registered [ 2015-12-01 13:55 ] · 763B97229D862BB81175A1160D6EB4D0826F1765

Download .torrent

Download

15 KB

Status: checked
Completed: 0 times
Size: 1.48 GB
terms.php
[Profile] [PM]
Display posts:    
Reply to topic

Current time is: 03-Apr 10:47

All times are UTC ± 0



You cannot post new topics in this forum
You cannot reply to topics in this forum
You cannot edit your posts in this forum
You cannot delete your posts in this forum
You cannot vote in polls in this forum
You cannot attach files in this forum
You can download files in this forum
Верим фактам, а не вранью Путина! Факт, что Правительство ведёт Россию к истреблению.
Так как численность населения падает, даже не смотря на приток эмигрантов!
Русская нация вымирает и вырождается, смешиваясь с эмигрантами!
Факт, что военных и граждан предприятий заставляют голосовать за партию Единая Россия и Путина
ПОД СТРАХОМ УВОЛЬНЕНИЯ!
Нам не нужно Правительство, блокирующее личную жизнь, интернет, нарушающее сохранность данных.
Все эти действия финансируются за счёт народа!