Итальянская ночь / Notte italiana (Карло Маццакурати / Carlo Mazzacurati) [1987, Италия, мелодрама, DVDRip] Sub Rus (Северный) + Original Ita

Reply to topic
DL-List and Torrent activity
Size:  1.36 GB   |    Registered:  4 years 4 months   |    Completed:  0 times

Seeder not seen: 1 year 1 month

 
   
 
 
Author Message

star21 ®

Gender: Female

Longevity: 4 years 5 months

Posts: 551945

Location: Екатеринбург

Post 01-Dec-2015 13:56

[Quote]

Итальянская ночь / Notte italiana Страна: Италия
Жанр: мелодрама
Год выпуска: 1987
Продолжительность: 01:25:39
Перевод: Субтитры Северный
Cубтитры: русские
Оригинальная аудиодорожка: итальянский
Режиссер: Карло Маццакурати / Carlo Mazzacurati
В ролях: Марко Мессери, Джулия Боски, Марио Адорф, Ремо Ремотти, Сильвана Де Сантис, Антонио Петрочелли, Эральдо Турра, Роберто Читран, Васко Мирандола, Тино Карраро
Описание: Адвокат Отелло Морсиани получает от своего нового клиента задание, связанное с тяжбой по земельному вопросу. Попутно ему поручается проследить за одной молодой женщиной. Прибыв на место, в маленькую деревушку в долине реки По, адвокат знакомится с девушкой - объектом его задания и влюбляется в нее.
Сэмпл: http://multi-up.com/1058105
Качество видео: DVDRip
Формат видео: AVI
Видео: 704x368 (1.91:1), 25 fps, XviD build 47 ~2073 kbps avg, 0.32 bit/pixel
Аудио: 48 kHz, AC3 Dolby Digital, 2/0 (L,R) Surround Encoded ch, ~192 kbps
Формат субтитров: softsub (SRT)

MediaInfo

Format : AVI
Format/Info : Audio Video Interleave
File size : 1.36 GiB
Duration : 1h 25mn
Overall bit rate : 2 275 Kbps
Video
ID : 0
Format : MPEG-4 Visual
Format profile : Advanced Simple@L5
Format settings, BVOP : 1
Format settings, QPel : No
Format settings, GMC : No warppoints
Format settings, Matrix : Default (MPEG)
Codec ID : XVID
Codec ID/Hint : XviD
Duration : 1h 25mn
Bit rate : 2 074 Kbps
Width : 704 pixels
Height : 368 pixels
Display aspect ratio : 1.913
Frame rate : 25.000 fps
Color space : YUV
Chroma subsampling : 4:2:0
Bit depth : 8 bits
Scan type : Progressive
Compression mode : Lossy
Bits/(Pixel*Frame) : 0.320
Stream size : 1.24 GiB (91%)
Writing library : XviD 1.2.0.dev47 (UTC 2006-11-01)
Audio
ID : 1
Format : AC-3
Format/Info : Audio Coding 3
Format profile : Dolby Digital
Mode extension : CM (complete main)
Format settings, Endianness : Big
Codec ID : 2000
Duration : 1h 25mn
Bit rate mode : Constant
Bit rate : 192 Kbps
Channel(s) : 2 channels
Channel positions : Front: L R
Sampling rate : 48.0 KHz
Bit depth : 16 bits
Compression mode : Lossy
Stream size : 118 MiB (8%)
Alignment : Split accross interleaves
Interleave, duration : 40 ms (1.00 video frame)
Interleave, preload duration : 500 ms

Скриншот c названием фильма

Пример субтитров

1
00:00:14,640 --> 00:00:18,929
ИТАЛЬЯНСКАЯ НОЧЬ
2
00:03:44,240 --> 00:03:47,483
Адвокат, что насчёт нашей встречи?
3
00:03:47,720 --> 00:03:51,770
- Я больше не представляю ваши интересы.
- Что? Но завтра слушание!
4
00:03:52,120 --> 00:03:55,806
Вы же не заплатили, или я ошибаюсь?
5
00:03:56,200 --> 00:03:59,363
Конечно. Поэтому я и
не получил контракт.
6
00:04:00,400 --> 00:04:03,370
Вам заплатили за проигрыш в суде!
7
00:04:03,600 --> 00:04:04,965
Откуда вы знаете?
8
00:04:05,400 --> 00:04:09,689
Я упустил важное дело, защищая вас.
9
00:04:12,200 --> 00:04:14,168
А теперь и игру проиграл.
10
00:04:15,000 --> 00:04:18,368
Вы не будете об этом распространяться,
правда?
11
00:04:20,400 --> 00:04:22,368
Кому какое дело?
12
00:05:08,800 --> 00:05:09,767
Кто там?
13
00:05:10,400 --> 00:05:11,606
Кекко...
14
00:05:12,000 --> 00:05:14,321
Откуда ты нарисовался?
Напугал меня.
15
00:05:14,480 --> 00:05:17,131
Зашёл через служебный вход,
как мальчишка.
16
00:05:17,560 --> 00:05:19,608
- Рад тебя видеть.
- Я тоже.
17
00:05:20,120 --> 00:05:22,691
- Что ты делаешь?
- Чиню бойлер.
18
00:05:22,920 --> 00:05:23,887
Ты сошёл с ума?
19
00:05:24,120 --> 00:05:26,361
Мне нравится работать руками.
20
00:05:33,000 --> 00:05:36,561
Отличный сторожевой пёс!
21
00:05:37,800 --> 00:05:39,928
Вчера я видел Меландри.
Огромное спасибо Северному за перевод фильма!

To download the content you need:
1. Download and install torrent client [for Windows] or for mobile system
2. Click on [Download]
Attention.
If the test YOU are NOT a ROBOT - does not work, then You are using an outdated browser.
Install the current browser and click on [Download]

Do not work with Yandex browser. Uploading files to them is erroneous.
Security: torrent client is allowed by Kaspersky.

[en.asmlocator.ru].t4434.torrent 
Torrent: Registered [ 2015-12-01 13:55 ] · EAF50B1436AF4371F12851B3EAFC5B3AA9B5707C

Download .torrent

Download

14 KB

Status: checked
Completed: 0 times
Size: 1.36 GB
terms.php
[Profile] [PM]
Display posts:    
Reply to topic

Current time is: 10-Apr 09:47

All times are UTC ± 0



You cannot post new topics in this forum
You cannot reply to topics in this forum
You cannot edit your posts in this forum
You cannot delete your posts in this forum
You cannot vote in polls in this forum
You cannot attach files in this forum
You can download files in this forum
Верим фактам, а не вранью Путина! Факт, что Правительство ведёт Россию к истреблению.
Так как численность населения падает, даже не смотря на приток эмигрантов!
Русская нация вымирает и вырождается, смешиваясь с эмигрантами!
Факт, что военных и граждан предприятий заставляют голосовать за партию Единая Россия и Путина
ПОД СТРАХОМ УВОЛЬНЕНИЯ!
Нам не нужно Правительство, блокирующее личную жизнь, интернет, нарушающее сохранность данных.
Все эти действия финансируются за счёт народа!