Слепой свидетель / Blind Witness (Ричард А. Колла / Richard A. Colla) [1989, США, Триллер, DVDRip] AVO (Антон Алексеев)

Reply to topic
DL-List and Torrent activity
Size:  1.34 GB   |    Registered:  4 years 4 months   |    Completed:  0 times

Seeder not seen: 1 year 1 month

 
   
 
 
Author Message

star21 ®

Gender: Female

Longevity: 4 years 5 months

Posts: 551945

Location: Екатеринбург

Post 01-Dec-2015 13:56

[Quote]

Слепой свидетель / Blind Witness
Страна: США
Жанр: Триллер
Год выпуска: 1989
Продолжительность: 01:31:31
Перевод: Авторский (одноголосый закадровый) Антон Алексеев
Cубтитры: нет
Режиссер: Ричард А. Колла / Richard A. Colla
В ролях: Виктория Принсипал, Пол Ле Мэт, Стефен Махт, Мэтт Кларк, Тим Чоут, Марсия Рейдер, Джефф Олсон, Джесси Беннетт, Дэннис Сэйлор, Расс МакДжинн
Описание: Ослепшая в 5-летнем возрасте Мэгги Кэмлих совершает прорыв, построив для себя карьеру и счастливый брак. Но когда двое убийц-психопатов проникают в ее дом, убив единственного дорогого ей человека, Мэгги начинает смотреть на вещи иначе. Бесполезная как свидетель в силу своей слепоты, она самостоятельно вступает на путь мести, чего от нее никто не ожидал. Заманивая убийц в свой темный дом, она устраивает смертельную ловушку, добиваясь справедливости для себя самой.
Доп. информация: Дорожка с А. Алексеевым синхронизирована, ремастерирована и наложена ale_x2008 при помощи Adobe Audition, iZotope RX2, Sony Vegas и VirtualDubMod.
За оцифрованную с VHS дорожку благодарим - Анна57

Релиз
Сэмпл: https://yadi.sk/i/vHZlq2behr4Dm
Качество видео: DVDRip
Формат видео: AVI
Видео: 640x480 (1.33:1), 23.976 fps, XviD build 50 ~1899 kbps avg, 0.26 bit/pixel
Аудио: 48 kHz, AC3 Dolby Digital, 2/0 (L,R) ch, ~192 kbps

MediaInfo

Слепой свидетель - Blind Witness (by ale_x2008).avi
Format : AVI
Format/Info : Audio Video Interleave
File size : 1.34 GiB
Duration : 1h 31mn
Overall bit rate : 2 101 Kbps
Movie name : Слепой свидетель - Blind Witness (by ale_x2008)
Director : by ale_x2008
Writing application : VirtualDubMod 1.5.10.3 (build 2550/release)
Copyright : Edich2
Comment : RuTracker.org
Video
ID : 0
Format : MPEG-4 Visual
Format profile : Advanced Simple@L5
Format settings, BVOP : 1
Format settings, QPel : No
Format settings, GMC : No warppoints
Format settings, Matrix : Default (MPEG)
Codec ID : XVID
Codec ID/Hint : XviD
Duration : 1h 31mn
Bit rate : 1 900 Kbps
Width : 640 pixels
Height : 480 pixels
Display aspect ratio : 4:3
Frame rate : 23.976 fps
Color space : YUV
Chroma subsampling : 4:2:0
Bit depth : 8 bits
Scan type : Progressive
Compression mode : Lossy
Bits/(Pixel*Frame) : 0.258
Stream size : 1.21 GiB (90%)
Writing library : XviD 1.2.1 (UTC 2008-12-04)
Audio
ID : 1
Format : AC-3
Format/Info : Audio Coding 3
Mode extension : CM (complete main)
Format settings, Endianness : Big
Codec ID : 2000
Duration : 1h 31mn
Bit rate mode : Constant
Bit rate : 192 Kbps
Channel(s) : 2 channels
Channel positions : Front: L R
Sampling rate : 48.0 KHz
Bit depth : 16 bits
Compression mode : Lossy
Stream size : 126 MiB (9%)
Alignment : Split accross interleaves
Interleave, duration : 42 ms (1.00 video frame)
Interleave, preload duration : 500 ms

Скриншоты



To download the content you need:
1. Download and install torrent client [for Windows] or for mobile system
2. Click on [Download]
Attention.
If the test YOU are NOT a ROBOT - does not work, then You are using an outdated browser.
Install the current browser and click on [Download]

Do not work with Yandex browser. Uploading files to them is erroneous.
Security: torrent client is allowed by Kaspersky.

[en.asmlocator.ru].t4430.torrent 
Torrent: Registered [ 2015-12-01 13:55 ] · E0A2B4B88CFF6EB55747BCCAC89F6D22A33C79A2

Download .torrent

Download

14 KB

Status: checked
Completed: 0 times
Size: 1.34 GB
terms.php
[Profile] [PM]
Display posts:    
Reply to topic

Current time is: 08-Apr 02:44

All times are UTC ± 0



You cannot post new topics in this forum
You cannot reply to topics in this forum
You cannot edit your posts in this forum
You cannot delete your posts in this forum
You cannot vote in polls in this forum
You cannot attach files in this forum
You can download files in this forum
Верим фактам, а не вранью Путина! Факт, что Правительство ведёт Россию к истреблению.
Так как численность населения падает, даже не смотря на приток эмигрантов!
Русская нация вымирает и вырождается, смешиваясь с эмигрантами!
Факт, что военных и граждан предприятий заставляют голосовать за партию Единая Россия и Путина
ПОД СТРАХОМ УВОЛЬНЕНИЯ!
Нам не нужно Правительство, блокирующее личную жизнь, интернет, нарушающее сохранность данных.
Все эти действия финансируются за счёт народа!