Кожа / Howard Beach: Making a Case for Murder / Skin (Дик Лоури / Dick Lowry) [1989, США, драма, VHSRip] AVO (Алексеев)

Reply to topic
DL-List and Torrent activity
Size:  1.37 GB   |    Registered:  4 years 3 months   |    Completed:  0 times

Seeder not seen: Never

 
   
 
 
Author Message

star21 ®

Gender: Female

Longevity: 4 years 4 months

Posts: 551945

Location: Екатеринбург

Post 01-Dec-2015 13:56

[Quote]

Кожа / Howard Beach: Making a Case for Murder / Skin
Страна: США
Жанр: драма
Год выпуска: 1989
Продолжительность: 01:21:57
Перевод: Авторский (одноголосый закадровый) Алексеев
Cубтитры: нет
Оригинальная аудиодорожка: нет
Режиссер: Дик Лоури / Dick Lowry
В ролях: Дэниел Дж. Траванти, Уильям Дэниелс, Джо Мортон, Клифф Гормен, Брюс А. Янг, Реджина Тейлор, Билл Свиковски, Дэн Лория, Грегори Алан Уильямс, Рон Битти
Описание: В декабре 1986 года трое чернокожих мужчин, машина которых поломалась в населенном средним классом районе Нью-Йорка, решают укрыться в ближайшем ресторане. То, что произошло после этого, повергло в шок весь город…
Доп. информация:
К сожалению на кассете 4-5 минут, на сцене в суде, затёрто, или были проблемы с мастер-кассетой при записи в подпольной студии.
Сэмпл: http://sendfile.su/1137279
Качество видео: VHSRip
Формат видео: AVI
Видео: 688x512 (1.34:1), 25 fps, DivX Codec 6.8.5/6.9.1 ~2186 kbps avg, 0.25 bit/pixel
Аудио: 48 kHz, AC3 Dolby Digital, 2/0 (L,R) ch, ~192 kbps

MediaInfo

Формат : AVI
Формат/Информация : Audio Video Interleave
Размер файла : 1,37 Гбайт
Продолжительность : 1 ч. 21 м.
Общий поток : 2388 Кбит/сек
Видео
Идентификатор : 0
Формат : MPEG-4 Visual
Параметр BVOP формата : 1
Параметр QPel формата : Нет
Параметр GMC формата : Без точки перехода
Параметр матрицы формата : Default (H.263)
Идентификатор кодека : DX50
Идентификатор кодека/Подсказка : DivX 5
Продолжительность : 1 ч. 21 м.
Битрейт : 2186 Кбит/сек
Ширина : 688 пикселей
Высота : 512 пикселей
Соотношение сторон : 4:3
Частота кадров : 25,000 кадров/сек
Цветовое пространство : YUV
Субдискретизация насыщенности : 4:2:0
Битовая глубина : 8 бит
Тип развёртки : Прогрессивная
Метод сжатия : С потерями
Бит/(Пиксели*Кадры) : 0.248
Размер потока : 1,25 Гбайт (92%)
Библиотека кодирования : DivX 6.8.5 (UTC 2009-08-20)
Аудио
Идентификатор : 1
Формат : AC-3
Формат/Информация : Audio Coding 3
Расширение режима : CM (complete main)
Идентификатор кодека : 2000
Продолжительность : 1 ч. 21 м.
Вид битрейта : Постоянный
Битрейт : 192 Кбит/сек
Каналы : 2 канала
Расположение каналов : Front: L R
Частота : 48,0 КГц
Битовая глубина : 16 бит
Метод сжатия : С потерями
Размер потока : 113 Мбайт (8%)
Выравнивание : Соединение по промежуткам
Продолжительность промежутка : 40 мс. (1,00 видеокадр)
Время предзагрузки промежутка : 512 мс.

Скриншот c названием фильма

Скриншоты

To download the content you need:
1. Download and install torrent client [for Windows] or for mobile system
2. Click on [Download]
Attention.
If the test YOU are NOT a ROBOT - does not work, then You are using an outdated browser.
Install the current browser and click on [Download]

Do not work with Yandex browser. Uploading files to them is erroneous.
Security: torrent client is allowed by Kaspersky.

[en.asmlocator.ru].t4428.torrent 
Torrent: Registered [ 2015-12-01 13:55 ] · 0268B2F5AE97716C02FA6E58A0ECF2BA3A8D94DC

Download .torrent

Download

28 KB

Status: checked
Completed: 0 times
Size: 1.37 GB
terms.php
[Profile] [PM]
Display posts:    
Reply to topic

Current time is: 29-Mar 19:02

All times are UTC ± 0



You cannot post new topics in this forum
You cannot reply to topics in this forum
You cannot edit your posts in this forum
You cannot delete your posts in this forum
You cannot vote in polls in this forum
You cannot attach files in this forum
You can download files in this forum
Верим фактам, а не вранью Путина! Факт, что Правительство ведёт Россию к истреблению.
Так как численность населения падает, даже не смотря на приток эмигрантов!
Русская нация вымирает и вырождается, смешиваясь с эмигрантами!
Факт, что военных и граждан предприятий заставляют голосовать за партию Единая Россия и Путина
ПОД СТРАХОМ УВОЛЬНЕНИЯ!
Нам не нужно Правительство, блокирующее личную жизнь, интернет, нарушающее сохранность данных.
Все эти действия финансируются за счёт народа!