Ключ к Ребекке / The Key to Rebecca (Дэвид Хеммингс / David Hemmings) [1985, США, исторический, мелодрама, шпионский триллер, DVDRip] MVO (НТВ+)

Reply to topic
DL-List and Torrent activity
Size:  2.74 GB   |    Registered:  4 years 4 months   |    Completed:  0 times

Seeder not seen: 2 years

 
   
 
 
Author Message

star21 ®

Gender: Female

Longevity: 4 years 5 months

Posts: 551945

Location: Екатеринбург

Post 01-Dec-2015 13:56

[Quote]

Ключ к Ребекке / The Key to Rebecca
Страна: США
Жанр: исторический, мелодрама, шпионский триллер
Год выпуска: 1985
Продолжительность: 01:38:16 + 01:37:20
Перевод: Профессиональный (многоголосый закадровый) НТВ+
Cубтитры: нет
Режиссер: Дэвид Хеммингс / David Hemmings
В ролях: Клифф Робертсон, Дэвид Соул, Сизон Хабли, Лина Рэймонд, Энтони Куэйл, Дэвид Хеммингс, Роберт Калп, Роберт Суэйлз, Чарли Кондоу, Эллис Дэйл, Рэймонд Янг, Ричард Гибсон, Брюс МакГуайр, Робин Уотсон
Описание: Экранизация романа Кена Фоллетта "Ключ к Ребекке".
Вторая мировая война, Северная Африка. Своим успехом генерал Роммель обязан сведениям, которыми его снабжает его агент в Каире. Жестокий, но красивый и обходительный нацистский агент Алекс Вольф использует танцовщицу, чтобы получать документы из штаба английской армии. Для кодировки своих сообщений он использует редкое издание романа Дафны Дюморье "Ребекка". На его след нападает британский майор разведки Уильям Вэндэм. Начинается захватывающая шпионская игра...
Доп. информация: Благодарность:
Igor2138 - за дорожку с переводом MVO
xelon2006 - за синхрон дорожки
serg peresad - за исходник

Релиз
Сэмпл: https://yadi.sk/i/Xf4s1ZExhrqMC
Качество видео: DVDRip
Формат видео: AVI
Видео: 704x528 (1.33:1), 25 fps, XviD build 50 ~1791 kbps avg, 0.19 bit/pixel
Аудио: 48 kHz, AC3 Dolby Digital, 2/0 (L,R) ch, ~192 kbps

MediaInfo

The Key to Rebecca 2.avi
Format : AVI
Format/Info : Audio Video Interleave
File size : 1.37 GiB
Duration : 1h 38mn
Overall bit rate : 1 993 Kbps
Writing application : VirtualDubMod 1.5.10.2 (build 2540/release)
Writing library : VirtualDubMod build 2540/release
Video
ID : 0
Format : MPEG-4 Visual
Format profile : Advanced Simple@L5
Format settings, BVOP : 1
Format settings, QPel : No
Format settings, GMC : No warppoints
Format settings, Matrix : Default (MPEG)
Codec ID : XVID
Codec ID/Hint : XviD
Duration : 1h 38mn
Bit rate : 1 792 Kbps
Width : 704 pixels
Height : 528 pixels
Display aspect ratio : 4:3
Frame rate : 25.000 fps
Color space : YUV
Chroma subsampling : 4:2:0
Bit depth : 8 bits
Scan type : Progressive
Compression mode : Lossy
Bits/(Pixel*Frame) : 0.193
Stream size : 1.23 GiB (90%)
Writing library : XviD 1.2.1 (UTC 2008-12-04)
Audio
ID : 1
Format : AC-3
Format/Info : Audio Coding 3
Mode extension : CM (complete main)
Format settings, Endianness : Big
Codec ID : 2000
Duration : 1h 38mn
Bit rate mode : Constant
Bit rate : 192 Kbps
Channel(s) : 2 channels
Channel positions : Front: L R
Sampling rate : 48.0 KHz
Bit depth : 16 bits
Compression mode : Lossy
Stream size : 135 MiB (10%)
Alignment : Split accross interleaves
Interleave, duration : 40 ms (1.00 video frame)
Interleave, preload duration : 500 ms

Скриншоты


To download the content you need:
1. Download and install torrent client [for Windows] or for mobile system
2. Click on [Download]
Attention.
If the test YOU are NOT a ROBOT - does not work, then You are using an outdated browser.
Install the current browser and click on [Download]

Do not work with Yandex browser. Uploading files to them is erroneous.
Security: torrent client is allowed by Kaspersky.

[en.asmlocator.ru].t4426.torrent 
Torrent: Registered [ 2015-12-01 13:55 ] · FDE53F78952CBA9E9833C25295D876928B99FD80

Download .torrent

Download

14 KB

Status: checked
Completed: 0 times
Size: 2.74 GB
terms.php
[Profile] [PM]
Display posts:    
Reply to topic

Current time is: 07-Apr 19:29

All times are UTC ± 0



You cannot post new topics in this forum
You cannot reply to topics in this forum
You cannot edit your posts in this forum
You cannot delete your posts in this forum
You cannot vote in polls in this forum
You cannot attach files in this forum
You can download files in this forum
Верим фактам, а не вранью Путина! Факт, что Правительство ведёт Россию к истреблению.
Так как численность населения падает, даже не смотря на приток эмигрантов!
Русская нация вымирает и вырождается, смешиваясь с эмигрантами!
Факт, что военных и граждан предприятий заставляют голосовать за партию Единая Россия и Путина
ПОД СТРАХОМ УВОЛЬНЕНИЯ!
Нам не нужно Правительство, блокирующее личную жизнь, интернет, нарушающее сохранность данных.
Все эти действия финансируются за счёт народа!