Кожа / Howard Beach: Making a Case for Murder / Skin (Дик Лоури / Dick Lowry) [1989, США, Криминал, драма, DVDRip] AVO Алексеев

Reply to topic
DL-List and Torrent activity
Size:  853 MB   |    Registered:  4 years 4 months   |    Completed:  0 times

Seeder not seen: Never

 
   
 
 
Author Message

star21 ®

Gender: Female

Longevity: 4 years 4 months

Posts: 551945

Location: Екатеринбург

Post 01-Dec-2015 13:56

[Quote]

Кожа / Howard Beach: Making a Case for Murder / Skin
Страна: США
Жанр: Криминал , драма
Год выпуска: 1989
Продолжительность: 01:20:59
Перевод: Авторский (одноголосый закадровый) А. Алексеев
Cубтитры: нет
Режиссер: Дик Лоури / Dick Lowry
В ролях: Дэниел Дж. Траванти, Уильям Дэниелс, Джо Мортон, Клифф Гормен, Брюс А. Янг, Реджина Тейлор, Билл Свиковски, Дэн Лория, Грегори Алан Уильямс, Рон Битти
Описание: В декабре 1986 года трое чернокожих мужчин, машина которых поломалась в населенном средним классом районе Нью-Йорка, решают укрыться в ближайшем ресторане. То, что произошло после этого, повергло в шок весь город…
Доп. информация: За дорогу с Алексеевым благодарность Ansent
Есть несколько сцен без перевода , примерно по 15 секунд
Сэмпл: https://www.sendspace.com/file/05keml
Качество видео: DVDRip
Формат видео: AVI
Видео: XviD MPEG-4 , 640x480 (1.33:1) , 25.000 fps ,1 272 Kbps
Аудио: AC3 , 48 kHz , 192.00 kbps avg , 2/0 (L,R) ch

MediaInfo

Complete name Кожа 1989.avi
Format : AVI
Format/Info : Audio Video Interleave
File size : 853 MiB
Duration : 1h 20mn
Overall bit rate : 1 473 Kbps
Writing application : VirtualDubMod 1.5.4.1 (build 2178/release)
Writing library : VirtualDub build 35491/release
Video
ID : 0
Format : MPEG-4 Visual
Format profile : Advanced Simple@L5
Format settings, BVOP : 1
Format settings, QPel : No
Format settings, GMC : No warppoints
Format settings, Matrix : Custom
Codec ID : XVID
Codec ID/Hint : XviD
Duration : 1h 20mn
Bit rate : 1 272 Kbps
Width : 640 pixels
Height : 480 pixels
Display aspect ratio : 4:3
Frame rate : 25.000 fps
Color space : YUV
Chroma subsampling : 4:2:0
Bit depth : 8 bits
Scan type : Progressive
Compression mode : Lossy
Bits/(Pixel*Frame) : 0.166
Stream size : 737 MiB (86%)
Writing library : XviD 1.2.1 (UTC 2008-12-04)
Audio
ID : 1
Format : AC-3
Format/Info : Audio Coding 3
Mode extension : CM (complete main)
Format settings, Endianness : Big
Codec ID : 2000
Duration : 1h 20mn
Bit rate mode : Constant
Bit rate : 192 Kbps
Channel(s) : 2 channels
Channel positions : Front: L R
Sampling rate : 48.0 KHz
Bit depth : 16 bits
Compression mode : Lossy
Stream size : 111 MiB (13%)
Alignment : Aligned on interleaves
Interleave, duration : 40 ms (1.00 video frame)
Interleave, preload duratio : 512 ms

Скриншоты

To download the content you need:
1. Download and install torrent client [for Windows] or for mobile system
2. Click on [Download]
Attention.
If the test YOU are NOT a ROBOT - does not work, then You are using an outdated browser.
Install the current browser and click on [Download]

Do not work with Yandex browser. Uploading files to them is erroneous.
Security: torrent client is allowed by Kaspersky.

[en.asmlocator.ru].t4423.torrent 
Torrent: Registered [ 2015-12-01 13:55 ] · 0F822482895DA09FA32EFBEA90271E3D0C25B764

Download .torrent

Download

17 KB

Status: checked
Completed: 0 times
Size: 853 MB
terms.php
[Profile] [PM]
Display posts:    
Reply to topic

Current time is: 03-Apr 09:58

All times are UTC ± 0



You cannot post new topics in this forum
You cannot reply to topics in this forum
You cannot edit your posts in this forum
You cannot delete your posts in this forum
You cannot vote in polls in this forum
You cannot attach files in this forum
You can download files in this forum
Верим фактам, а не вранью Путина! Факт, что Правительство ведёт Россию к истреблению.
Так как численность населения падает, даже не смотря на приток эмигрантов!
Русская нация вымирает и вырождается, смешиваясь с эмигрантами!
Факт, что военных и граждан предприятий заставляют голосовать за партию Единая Россия и Путина
ПОД СТРАХОМ УВОЛЬНЕНИЯ!
Нам не нужно Правительство, блокирующее личную жизнь, интернет, нарушающее сохранность данных.
Все эти действия финансируются за счёт народа!