Солдат с другой планеты / Пришелец / Zone Troopers (Дэнни Билсон / Danny Bilson) [1985, США, фантастика, военный, HDTVRip-AVC] DVO (НТВ+) + MVO (Селена Интернейшнл) + Original Eng

Reply to topic
DL-List and Torrent activity
Size:  2.07 GB   |    Registered:  4 years 3 months   |    Completed:  0 times

Seeder not seen: 1 year 11 months

 
   
 
 
Author Message

star21 ®

Gender: Female

Longevity: 4 years 4 months

Posts: 551945

Location: Екатеринбург

Post 01-Dec-2015 13:56

[Quote]

Солдат с другой планеты / Пришелец / Zone Troopers
Страна: США
Студия: Altar Productions, Empire Pictures
Жанр: фантастика, военный
Год выпуска: 1985
Продолжительность: 01:22:16
Перевод 1: Профессиональный (двухголосый закадровый) НТВ+
Перевод 2: Профессиональный (многоголосый закадровый) Селена Интернейшнл
Cубтитры: нет
Оригинальная аудиодорожка: английский
Режиссер: Дэнни Билсон / Danny Bilson
В ролях: Тим Томерсон, Тимоти Ван Паттен, Арт ЛаФлер, Бифф Мэйнард, Уильям Полсон, Питер Бум, Макс Турилли
Описание: Италия, зима 1944 года. Подразделение американской армии попадает в засаду немцев. После боя в живых остаются лишь четверо американцев. Заблудившись в лесу, они страдают от холода и голода, но готовы как можно дороже продать свои жизни. Вдруг неподалеку от них совершает аварийную посадку инопланетный космический корабль!
Правда, вначале солдаты отказываются верить своим глазам, и только Малыш, любитель газетно-журнальных комиксов и фантастическо-приключенческой литературы, сразу понимает, что к чему. Обнаружив, что один из пилотов корабля остался жив, американцы прочесывают лес и находят пришельца, но на этом их приключения только начинаются.
Впереди будут «бои местного значения», кратковременный плен, чудодейственное спасение, общение с пришельцем, способным исполнять любые желания, и относительно крупное сражение с применением инопланетных аннигиляторов.
II Сэмпл II [imdb]http://www.imdb.com/title/tt0092298[/imdb] II
Доп. информация:
За исходник спасибо Mirmekiy
Дорога НТВ+ записана с т/к MGM HD
Качество видео: HDTVRip-AVC
Формат видео: MKV
Видео: AVC / 1120x608 / 1.85:1 / 25.0fps / Bit rate 3000Kbps / b/p 0.176
Аудио 1: AC3 / 48.0 KHz / 2ch. / 192kbps / rus / dvo / НТВ+
Аудио 2: AC3 / 48.0 KHz / 2ch. / 192kbps / rus / mvo / Селена Интернейшнл
Аудио 3: AC3 / 48.0 KHz / 2ch. / 224kbps / eng

MediaInfo

Общее
Уникальный идентификатор : 230179833709770211664366810463674001327 (0xAD2B05FFBE19C5B5A1408B420E6F67AF)
Полное имя : D:\torrent\Zone.Troopers.1985.HDTVRip-AVC_by_vedigo.mkv
Формат : Matroska
Версия формата : Version 4 / Version 2
Размер файла : 2,07 Гбайт
Продолжительность : 1 ч. 22 м.
Общий поток : 3609 Кбит/сек
Дата кодирования : UTC 2015-07-16 10:04:03
Программа кодирования : mkvmerge v8.1.0 ('Psychedelic Postcard') 64bit
Библиотека кодирования : libebml v1.3.1 + libmatroska v1.4.2
DURATION : 01:22:16.288000000
NUMBER_OF_FRAMES : 154259
NUMBER_OF_BYTES : 138216064
_STATISTICS_WRITING_APP : mkvmerge v8.1.0 ('Psychedelic Postcard') 64bit
_STATISTICS_WRITING_DATE_UTC : 2015-07-16 10:04:03
_STATISTICS_TAGS : BPS DURATION NUMBER_OF_FRAMES NUMBER_OF_BYTES
Видео
Идентификатор : 1
Формат : AVC
Формат/Информация : Advanced Video Codec
Профиль формата : High@L4.1
Параметр CABAC формата : Да
Параметр ReFrames формата : 12 кадров
Идентификатор кодека : V_MPEG4/ISO/AVC
Продолжительность : 1 ч. 22 м.
Битрейт : 3000 Кбит/сек
Ширина : 1120 пикселей
Высота : 608 пикселей
Соотношение сторон : 1,85:1
Режим частоты кадров : Постоянный
Частота кадров : 25,000 кадров/сек
Цветовое пространство : YUV
Субдискретизация насыщенности : 4:2:0
Битовая глубина : 8 бит
Тип развёртки : Прогрессивная
Бит/(Пиксели*Кадры) : 0.176
Размер потока : 1,68 Гбайт (81%)
Заголовок : Zone.Troopers.1985.HDTVRip-AVC_by_vedigo
Библиотека кодирования : x264 core 146 r2538 121396c
Настройки программы : cabac=1 / ref=12 / deblock=1:-3:-3 / analyse=0x3:0x133 / me=umh / subme=11 / psy=1 / psy_rd=1.00:0.10 / mixed_ref=1 / me_range=36 / chroma_me=1 / trellis=2 / 8x8dct=1 / cqm=0 / deadzone=21,11 / fast_pskip=0 / chroma_qp_offset=-3 / threads=12 / lookahead_threads=3 / sliced_threads=0 / nr=0 / decimate=1 / interlaced=0 / bluray_compat=0 / constrained_intra=0 / bframes=10 / b_pyramid=2 / b_adapt=2 / b_bias=0 / direct=3 / weightb=1 / open_gop=0 / weightp=2 / keyint=250 / keyint_min=25 / scenecut=40 / intra_refresh=0 / rc_lookahead=40 / rc=2pass / mbtree=0 / bitrate=3000 / ratetol=1.0 / qcomp=0.60 / qpmin=0 / qpmax=69 / qpstep=4 / cplxblur=20.0 / qblur=0.5 / vbv_maxrate=50000 / vbv_bufsize=62500 / nal_hrd=none / filler=0 / ip_ratio=1.40 / pb_ratio=1.30 / aq=1:1.00
Default : Да
Forced : Нет
DURATION : 01:22:16.320000000
NUMBER_OF_FRAMES : 123408
NUMBER_OF_BYTES : 1850152464
_STATISTICS_WRITING_APP : mkvmerge v8.1.0 ('Psychedelic Postcard') 64bit
_STATISTICS_WRITING_DATE_UTC : 2015-07-16 10:04:03
_STATISTICS_TAGS : BPS DURATION NUMBER_OF_FRAMES NUMBER_OF_BYTES
Аудио #1
Идентификатор : 2
Формат : AC-3
Формат/Информация : Audio Coding 3
Расширение режима : CM (complete main)
Параметр Endianness формата : Big
Идентификатор кодека : A_AC3
Продолжительность : 1 ч. 22 м.
Вид битрейта : Постоянный
Битрейт : 192 Кбит/сек
Каналы : 2 канала
Расположение каналов : Front: L R
Частота : 48,0 КГц
Метод сжатия : С потерями
Размер потока : 113 Мбайт (5%)
Заголовок : dvo @ НТВ+
Язык : Russian
Default : Да
Forced : Нет
Аудио #2
Идентификатор : 3
Формат : AC-3
Формат/Информация : Audio Coding 3
Расширение режима : CM (complete main)
Параметр Endianness формата : Big
Идентификатор кодека : A_AC3
Продолжительность : 1 ч. 22 м.
Вид битрейта : Постоянный
Битрейт : 192 Кбит/сек
Каналы : 2 канала
Расположение каналов : Front: L R
Частота : 48,0 КГц
Метод сжатия : С потерями
Размер потока : 113 Мбайт (5%)
Заголовок : mvo @ Селена Интернейшнл
Язык : Russian
Default : Нет
Forced : Нет
Аудио #3
Идентификатор : 4
Формат : AC-3
Формат/Информация : Audio Coding 3
Расширение режима : CM (complete main)
Параметр Endianness формата : Big
Идентификатор кодека : A_AC3
Продолжительность : 1 ч. 22 м.
Вид битрейта : Постоянный
Битрейт : 224 Кбит/сек
Каналы : 2 канала
Расположение каналов : Front: L R
Частота : 48,0 КГц
Метод сжатия : С потерями
Размер потока : 132 Мбайт (6%)
Заголовок : original
Язык : English
Default : Нет
Forced : Нет

Скриншот c названием фильма

Скриншоты


To download the content you need:
1. Download and install torrent client [for Windows] or for mobile system
2. Click on [Download]
Attention.
If the test YOU are NOT a ROBOT - does not work, then You are using an outdated browser.
Install the current browser and click on [Download]

Do not work with Yandex browser. Uploading files to them is erroneous.
Security: torrent client is allowed by Kaspersky.

[en.asmlocator.ru].t4422.torrent 
Torrent: Registered [ 2015-12-01 13:55 ] · B8A377CE7A7EDBE23AB558A5E2E58E0A64128FB3

Download .torrent

Download

11 KB

Status: checked
Completed: 0 times
Size: 2.07 GB
terms.php
[Profile] [PM]
Display posts:    
Reply to topic

Current time is: 31-Mar 16:01

All times are UTC ± 0



You cannot post new topics in this forum
You cannot reply to topics in this forum
You cannot edit your posts in this forum
You cannot delete your posts in this forum
You cannot vote in polls in this forum
You cannot attach files in this forum
You can download files in this forum
Верим фактам, а не вранью Путина! Факт, что Правительство ведёт Россию к истреблению.
Так как численность населения падает, даже не смотря на приток эмигрантов!
Русская нация вымирает и вырождается, смешиваясь с эмигрантами!
Факт, что военных и граждан предприятий заставляют голосовать за партию Единая Россия и Путина
ПОД СТРАХОМ УВОЛЬНЕНИЯ!
Нам не нужно Правительство, блокирующее личную жизнь, интернет, нарушающее сохранность данных.
Все эти действия финансируются за счёт народа!