Сувениры на вечеринке / Пицца без верха / Party Favors (Эд Хэнсен / Ed Hansen) [1987, США, комедия, VHSRip] AVO (Пронин)

Reply to topic
DL-List and Torrent activity
Size:  1.37 GB   |    Registered:  4 years 3 months   |    Completed:  0 times

Seeder not seen: 2 years 5 months

 
   
 
 
Author Message

star21 ®

Gender: Female

Longevity: 4 years 4 months

Posts: 551945

Location: Екатеринбург

Post 01-Dec-2015 13:56

[Quote]

Сувениры на вечеринке / Пицца без верха / Party Favors
Страна: США
Жанр: комедия
Год выпуска: 1987
Продолжительность: 01:22:23
Перевод: Авторский (одноголосый закадровый) Пронин
Cубтитры: нет
Режиссер: Эд Хэнсен / Ed Hansen
В ролях: Джинни Уинтерс, Джон Ф. Гофф, Джордж Бак Флауэр /George Buck Flower/, Кент Стоддарт, Гэйл Тэкрэй, Марджори Миллер, Джилл Джонсон, Дон Эдвардс, Алберт Лорд, Алва Мигоуэн
Описание:
1. Аннотация от alenavova
Картина могла бы смело претендовать на звание самой безвкусной ленты года, если бы, к сожалению, не существовало уймы конкурентов. Юмор поставщиков пошл и вторичен, в картине нет ни грамма эротики, а лишь примитивная демонстрация голых грудей и прочих прелестей группы юных девиц из школы стриптиза. Эту школу ведет гомик Эллиотт, а некий доктор с помощью полиции пытается прекратить ее действие. Под прикрытием торговли пиццей на колесах бойкие девицы пытаются скомпрометировать уважаемых граждан, совершая стриптиз в больнице, в офисах. Им удается заманить в ловушку даже набожного доктора. Единственным достоинством ленты является ее животный оптимизм, доходящий до дебилизма.
2. Глупый бездарный сюжет и плоские пошлые шутки - то и другое понадобилось авторам фильма, чтобы раздеть нескольких женщин, которые могли бы сбросить с себя одежды и без всякой кинокамеры. В картине "СНИМАЯ С СЕБЯ ВСЕ" хотя бы была невероятная Китти Нативидад. Она не спасала убогость картины, но хотя бы пробуждала интерес к анатомической уникальности собственного тела. А "ПИЦЦА БЕЗ ВЕРХА" - просто безголовая антиреклама пиццы. (Аркадьев) (Иванов М.)
Доп. информация: Благодарность:
a-durow - за дорожку с переводом AVO
xelon2006 - за синхрон дорожки

Релиз
Сэмпл: https://yadi.sk/i/ymhWf_QShvBWa
Качество видео: VHSRip
Формат видео: AVI
Видео: 640x480 (1.33:1), 23.976 fps, XviD build 50 ~2173 kbps avg, 0.29 bit/pixel
Аудио: 48 kHz, AC3 Dolby Digital, 2/0 (L,R) ch, ~192 kbps

MediaInfo

Сувениры на вечеринке - Party Favors [by Edich2].avi
Format : AVI
Format/Info : Audio Video Interleave
File size : 1.37 GiB
Duration : 1h 22mn
Overall bit rate : 2 375 Kbps
Movie name : Сувениры на вечеринке - Party Favors [by Edich2]
Director : by Edich2
Writing application : VirtualDubMod 1.5.10.2 (build 2540/release)
Comment : RuTracker.org
Video
ID : 0
Format : MPEG-4 Visual
Format profile : Advanced Simple@L5
Format settings, BVOP : 1
Format settings, QPel : No
Format settings, GMC : No warppoints
Format settings, Matrix : Default (MPEG)
Codec ID : XVID
Codec ID/Hint : XviD
Duration : 1h 22mn
Bit rate : 2 174 Kbps
Width : 640 pixels
Height : 480 pixels
Display aspect ratio : 4:3
Frame rate : 23.976 fps
Color space : YUV
Chroma subsampling : 4:2:0
Bit depth : 8 bits
Scan type : Progressive
Compression mode : Lossy
Bits/(Pixel*Frame) : 0.295
Stream size : 1.25 GiB (92%)
Writing library : XviD 1.2.1 (UTC 2008-12-04)
Audio
ID : 1
Format : AC-3
Format/Info : Audio Coding 3
Mode extension : CM (complete main)
Format settings, Endianness : Big
Codec ID : 2000
Duration : 1h 22mn
Bit rate mode : Constant
Bit rate : 192 Kbps
Channel(s) : 2 channels
Channel positions : Front: L R
Sampling rate : 48.0 KHz
Bit depth : 16 bits
Compression mode : Lossy
Stream size : 113 MiB (8%)
Alignment : Split accross interleaves
Interleave, duration : 42 ms (1.00 video frame)
Interleave, preload duration : 500 ms

To download the content you need:
1. Download and install torrent client [for Windows] or for mobile system
2. Click on [Download]
Attention.
If the test YOU are NOT a ROBOT - does not work, then You are using an outdated browser.
Install the current browser and click on [Download]

Do not work with Yandex browser. Uploading files to them is erroneous.
Security: torrent client is allowed by Kaspersky.

[en.asmlocator.ru].t4418.torrent 
Torrent: Registered [ 2015-12-01 13:55 ] · E6DF12C4FFCAC56D8310BBB47A10D1F1FAD844C7

Download .torrent

Download

14 KB

Status: checked
Completed: 0 times
Size: 1.37 GB
terms.php
[Profile] [PM]
Display posts:    
Reply to topic

Current time is: 28-Mar 23:02

All times are UTC ± 0



You cannot post new topics in this forum
You cannot reply to topics in this forum
You cannot edit your posts in this forum
You cannot delete your posts in this forum
You cannot vote in polls in this forum
You cannot attach files in this forum
You can download files in this forum
Верим фактам, а не вранью Путина! Факт, что Правительство ведёт Россию к истреблению.
Так как численность населения падает, даже не смотря на приток эмигрантов!
Русская нация вымирает и вырождается, смешиваясь с эмигрантами!
Факт, что военных и граждан предприятий заставляют голосовать за партию Единая Россия и Путина
ПОД СТРАХОМ УВОЛЬНЕНИЯ!
Нам не нужно Правительство, блокирующее личную жизнь, интернет, нарушающее сохранность данных.
Все эти действия финансируются за счёт народа!