Немой крик / The Silent Scream (Денни Харрис / Denny Harris) [1980, США, триллер, ужасы, DVDRip] AVO (Андрей Дольский)

Reply to topic
DL-List and Torrent activity
Size:  743 MB   |    Registered:  4 years 4 months   |    Completed:  2 times

Seeder not seen: 5 months 21 day

 
   
 
 
Author Message

star21 ®

Gender: Female

Longevity: 4 years 5 months

Posts: 551945

Location: Екатеринбург

Post 01-Dec-2015 13:56

[Quote]

Немой крик / The Silent Scream
Страна: США
Жанр: триллер, ужасы
Год выпуска: 1980
Продолжительность: 01:26:35
Перевод: Авторский (одноголосый закадровый) - Андрей Дольский
Cубтитры: нет

Режиссер: Денни Харрис / Denny Harris
В ролях: Тельма Пелиш, Кэмерон Митчелл, Ребекка Бэлдинг, Тина Тайлер, Стив Доубет, Эйвери Шрайбер, Брэд Рирден, Джон Уйалдлок, Барбара Стил, Джек Страйкер
Описание: Девушка Скотти Паркер прибывает в университет позже остальных студентов, поэтому ей не достается места в студенческом общежитии. Тогда она снимает комнату в большом старом стоящем у моря поместье, в котором живут отшельники: Мэйсон Энгельс и его мать. Вскоре кто — то начинает убивать студентов университетского городка. Скотти начинает подозревать в совершении этих преступлений семью Энгельсов. Она узнает, что в поместье также живет сумасшедшая сестра Мэйсона Вирджиния, которую хозяева держат запертой в подвале дома…
Качество видео:
Формат видео: AVI
Видео: 656x368 (1.78:1), 23.976 fps, XviD build 73 ~1061 kbps avg, 0.18 bit/pixel
Аудио: 48 kHz, MPEG Layer 3, 2 ch, ~128.00 kbps avg

MediaInfo

Общее
Полное имя : J:\The.Silent.Scream.1979.dvdrip_[745]_[teko].avi
Формат : AVI
Формат/Информация : Audio Video Interleave
Размер файла : 743 Мбайт
Продолжительность : 1 ч. 26 м.
Общий поток : 1199 Кбит/сек
Программа кодирования : VirtualDubMod 1.5.10.3 | www.virtualdub-fr.org || (build 2550/release)
Библиотека кодирования : VirtualDubMod build 2550/release
Видео
Идентификатор : 0
Формат : MPEG-4 Visual
Профиль формата : Advanced Simple@L5
Параметр BVOP формата : 2
Параметр QPel формата : Нет
Параметр GMC формата : Без точки перехода
Параметр матрицы формата : Выборочная
Идентификатор кодека : XVID
Идентификатор кодека/Подсказка : XviD
Продолжительность : 1 ч. 26 м.
Битрейт : 1062 Кбит/сек
Ширина : 656 пикселей
Высота : 368 пикселей
Соотношение сторон : 16:9
Частота кадров : 23,976 кадра/сек
Цветовое пространство : YUV
Субдискретизация насыщенности : 4:2:0
Битовая глубина : 8 бит
Тип развёртки : Прогрессивная
Метод сжатия : С потерями
Бит/(Пиксели*Кадры) : 0.183
Размер потока : 658 Мбайт (89%)
Библиотека кодирования : XviD 73
Аудио
Идентификатор : 1
Формат : MPEG Audio
Версия формата : Version 1
Профиль формата : Layer 3
Идентификатор кодека : 55
Идентификатор кодека/Подсказка : MP3
Продолжительность : 1 ч. 26 м.
Вид битрейта : Постоянный
Битрейт : 128 Кбит/сек
Каналы : 2 канала
Частота : 48,0 КГц
Метод сжатия : С потерями
Размер потока : 79,3 Мбайт (11%)
Выравнивание : Соединение по промежуткам
Продолжительность промежутка : 42 мс. (1,00 видеокадр)
Время предзагрузки промежутка : 504 мс.
Библиотека кодирования : LAME3.98r
Настройки программы : -m s -V 4 -q 2 -lowpass 17 -b 128
Релиз группы:
-
-

To download the content you need:
1. Download and install torrent client [for Windows] or for mobile system
2. Click on [Download]
Attention.
If the test YOU are NOT a ROBOT - does not work, then You are using an outdated browser.
Install the current browser and click on [Download]

Do not work with Yandex browser. Uploading files to them is erroneous.
Security: torrent client is allowed by Kaspersky.

[en.asmlocator.ru].t4411.torrent 
Torrent: Registered [ 2015-12-01 13:55 ] · E090FA2A022D3256193CB741F01E470E037BF334

Download .torrent

Download

15 KB

Status: checked
Completed: 2 times
Size: 743 MB
terms.php
[Profile] [PM]
Display posts:    
Reply to topic

Current time is: 10-Apr 09:35

All times are UTC ± 0



You cannot post new topics in this forum
You cannot reply to topics in this forum
You cannot edit your posts in this forum
You cannot delete your posts in this forum
You cannot vote in polls in this forum
You cannot attach files in this forum
You can download files in this forum
Верим фактам, а не вранью Путина! Факт, что Правительство ведёт Россию к истреблению.
Так как численность населения падает, даже не смотря на приток эмигрантов!
Русская нация вымирает и вырождается, смешиваясь с эмигрантами!
Факт, что военных и граждан предприятий заставляют голосовать за партию Единая Россия и Путина
ПОД СТРАХОМ УВОЛЬНЕНИЯ!
Нам не нужно Правительство, блокирующее личную жизнь, интернет, нарушающее сохранность данных.
Все эти действия финансируются за счёт народа!