Человек-загадка / The Jigsaw Man (Теренс Янг / Terence Young) [1984 (1983), Великобритания, триллер, DVDRip] AVO (Алексей Михалев) + Original Eng

Reply to topic
DL-List and Torrent activity
Size:  1.47 GB   |    Registered:  4 years 4 months   |    Completed:  0 times

Seeder not seen: 2 years 11 months

 
   
 
 
Author Message

star21 ®

Gender: Female

Longevity: 4 years 5 months

Posts: 551945

Location: Екатеринбург

Post 01-Dec-2015 13:56

[Quote]

Человек-загадка / The Jigsaw Man

Слоган: «The Game of Spying, Double Cross, Defection, Betrayal & Death»
Страна: Великобритания
Студия: Evangrove, Nitemeg
Жанр: триллер
Год выпуска: 1984(По версии Кинопоиска 1983)
Продолжительность: 01:29:55
Перевод: Авторский (одноголосый закадровый) - Алексей Михалев
Cубтитры: нет
Оригинальная аудиодорожка: английский
Режиссер: Теренс Янг / Terence Young
В ролях: Майкл Кейн, Лоуренс Оливье, Сьюзен Джордж, Роберт Пауэлл, Чарльз Грей, Morteza Kazerouni, Майкл Медуин, Эрик Севареид, Сабина Сун, Дэвид Келли ...
Описание: Бывший руководитель британской секретной службы Филипп Кимберли, перебежавший на сторону СССР и получивший звание генерала КГБ, спустя десяток лет фиктивно «умирает» и его с почестями хоронят где-то в районе Кремлевской стены. На самом же деле после пластической операции и соответствующих тренировок 60-летний Кимберли превращается в цветущего 40-летнего мужчину — для того, чтобы под наблюдением КГБ отправиться на родной туманный Альбион и найти там спрятанные им самим бухгалтерские ведомости с данными о зарплате, что шла на счета кремлевских агентов, действующих на английской земле.
Доп. информация: Рип сделан из этого . (Который на постере)-- [imdb]http://www.imdb.com/title/tt0085755[/imdb]--The Jigsaw Man (1983)_DVDRip_Sample_.avi-
-

Знаете ли вы, что...


-
-Качество видео: DVDRip
Формат видео: AVI
Видео: 688x528 (1.30:1), 25 fps, XviD build 50 ~1933 kbps avg, 0.21 bit/pixel
Аудио 1: 48 kHz, AC3 Dolby Digital, 2/0 (L,R) ch, ~192 kbps, Русский
Аудио 2: 48 kHz, AC3 Dolby Digital, 2/0 (L,R) ch, ~192 kbps, Английский

AviInfo

File: The Jigsaw Man (1983)_DVDRip_.avi
Title: The Jigsaw Man (1983)
Copyleft: Ripped_by_rjhlb777
Genre: Thriller
Category: Movie
Comment: AVO (Алексей Михалев) + Original Eng
FileSize: 1500.72 Mb ( 1 573 621 760 bytes )
Play length: 01:29:55.439 (134886 frames)
Subtitles: Not Present
Video: 688x528 (1.30:1), 25 fps, XviD build 50 ~1933 kbps avg, 0.21 bit/pixel
Audio #1: 48 kHz, AC3 Dolby Digital, 2/0 (L,R) ch, ~192 kbps
Audio #2: 48 kHz, AC3 Dolby Digital, 2/0 (L,R) ch, ~192 kbps

MediaInfo

General
Complete name : C:\Temp\The Jigsaw Man (1983)_DVDRip_.avi
Format : AVI
Format/Info : Audio Video Interleave
File size : 1.47 GiB
Duration : 1h 29mn
Overall bit rate : 2 333 Kbps
Movie name : The Jigsaw Man (1983)
Genre : Thriller
Writing application : VirtualDubMod 1.5.10.3 | www.virtualdub-fr.org || (build 2550/release)
Original source form/Name : Movie
Copyright : Ripped_by_rjhlb777
Comment : AVO (Алексей Михалев) + Original Eng
Video
ID : 0
Format : MPEG-4 Visual
Format profile : Advanced Simple@L5
Format settings, BVOP : 1
Format settings, QPel : No
Format settings, GMC : No warppoints
Format settings, Matrix : Default (MPEG)
Codec ID : XVID
Codec ID/Hint : XviD
Duration : 1h 29mn
Bit rate : 1 935 Kbps
Width : 688 pixels
Height : 528 pixels
Display aspect ratio : 4:3
Frame rate : 25.000 fps
Color space : YUV
Chroma subsampling : 4:2:0
Bit depth : 8 bits
Scan type : Progressive
Compression mode : Lossy
Bits/(Pixel*Frame) : 0.213
Stream size : 1.22 GiB (83%)
Writing library : XviD 1.2.1 (UTC 2008-12-04)
Audio #1
ID : 1
Format : AC-3
Format/Info : Audio Coding 3
Mode extension : CM (complete main)
Format settings, Endianness : Big
Codec ID : 2000
Duration : 1h 29mn
Bit rate mode : Constant
Bit rate : 192 Kbps
Channel(s) : 2 channels
Channel positions : Front: L R
Sampling rate : 48.0 KHz
Compression mode : Lossy
Stream size : 123 MiB (8%)
Alignment : Split accross interleaves
Interleave, duration : 40 ms (1.00 video frame)
Interleave, preload duratio : 500 ms
Audio #2
ID : 2
Format : AC-3
Format/Info : Audio Coding 3
Mode extension : CM (complete main)
Format settings, Endianness : Big
Codec ID : 2000
Duration : 1h 29mn
Bit rate mode : Constant
Bit rate : 192 Kbps
Channel(s) : 2 channels
Channel positions : Front: L R
Sampling rate : 48.0 KHz
Compression mode : Lossy
Stream size : 123 MiB (8%)
Alignment : Split accross interleaves
Interleave, duration : 40 ms (1.00 video frame)
Interleave, preload duratio : 500 ms

Скриншоты сравнения

alenavova
http://screenshotcomparison.com/comparison/135847/picture:4

To download the content you need:
1. Download and install torrent client [for Windows] or for mobile system
2. Click on [Download]
Attention.
If the test YOU are NOT a ROBOT - does not work, then You are using an outdated browser.
Install the current browser and click on [Download]

Do not work with Yandex browser. Uploading files to them is erroneous.
Security: torrent client is allowed by Kaspersky.

[en.asmlocator.ru].t4406.torrent 
Torrent: Registered [ 2015-12-01 13:55 ] · 1FA65DB6EF9D36ED3622A96EC2BCF7B80E471D37

Download .torrent

Download

15 KB

Status: checked
Completed: 0 times
Size: 1.47 GB
terms.php
[Profile] [PM]
Display posts:    
Reply to topic

Current time is: 07-Apr 19:57

All times are UTC ± 0



You cannot post new topics in this forum
You cannot reply to topics in this forum
You cannot edit your posts in this forum
You cannot delete your posts in this forum
You cannot vote in polls in this forum
You cannot attach files in this forum
You can download files in this forum
Верим фактам, а не вранью Путина! Факт, что Правительство ведёт Россию к истреблению.
Так как численность населения падает, даже не смотря на приток эмигрантов!
Русская нация вымирает и вырождается, смешиваясь с эмигрантами!
Факт, что военных и граждан предприятий заставляют голосовать за партию Единая Россия и Путина
ПОД СТРАХОМ УВОЛЬНЕНИЯ!
Нам не нужно Правительство, блокирующее личную жизнь, интернет, нарушающее сохранность данных.
Все эти действия финансируются за счёт народа!