Священный союз / L\'Union sacrée (Александр Аркади / Alexandre Arcady) [1989, Франция, драма, криминал, HDTVRip] Sub Rus + Original Fre

Reply to topic
DL-List and Torrent activity
Size:  1.44 GB   |    Registered:  4 years 4 months   |    Completed:  0 times

Seeder not seen: 1 year 1 month

 
   
 
 
Author Message

star21 ®

Gender: Female

Longevity: 4 years 4 months

Posts: 551945

Location: Екатеринбург

Post 01-Dec-2015 13:56

[Quote]

Священный союз / L'Union sacrée Страна: Франция
Жанр: драма, криминал
Год выпуска: 1989
Продолжительность: 01:56:59
Перевод: Субтитры nat_riga, pas_encore_folle, Chimere, Alla, NataliK
Cубтитры: русские
Оригинальная аудиодорожка: французский
Режиссер: Александр Аркади / Alexandre Arcady
В ролях: Ришар Берри, Патрик Брюэль, Бруно Кремер, Клод Брассёр, Саид Амади, Митч Пиледжи, Коринн Дакла, Марта Виллалонга, Амиду, Хамму Грайа, Люсьен Лаяни, Мишель Альбертини, Пьер Вельэсказ, Константин Александров, Малек Катеб, Кристиан Фелла, Эль Кебир, Александр Ажа, Шарлотта Вери, Мусс Диуф, Роберт Бенмусса, Сами Лаяни, Пьер Аббу, Фабрис Баньи, Натали Герен
Описание: Симон Атлан (Патрик Брюэль), французский полицейский, еврей по национальности, проводит антинаркотическую операцию на грузовом судне "Сиан" из Бейрута. Среди задержанных во время этой облавы оказывается некий Карим Амида (Ришар Берри), в действительности лейтенант управления внешней безпастности, работающий под прикрытием. После этого инцидента Карим, по национальности араб, родившийся в Алжире, становится напарником Симона, тоже родом из Алжира. Их миссия: найти и уничтожить контрабандный канал ввоза оружия и наркотиков мусульманского фанатика Али Раджани (Саид Амади), работавшего псевдодипломатом. И несмотря на то, что Кариму и Симону, еврею и арабу, трудно найти общий язык, априори, ничто не должно объединять эти двух разных людей, они всё же создадут «священный союз», который приведет их к большой дружбе...
Доп. информация: Собственный рип. За русские сабы и перевод спасибо nat_riga, pas_encore_folle, Chimere, Alla, NataliK!
Сэмпл: http://multi-up.com/1059450
Качество видео: HDTVRip
Исходник: французский HDTV 1080p (канал HD1)
Формат видео: AVI
Видео: XviD, 720x304 (2.35:1), 25.000 fps, 1564 kbps avg
Аудио: France AC3 Dolby Digital, 48 kHz, 2/0 (L,R) ch, 192.00 kbps avg
Формат субтитров: softsub (SRT)

MediaInfo

General
Complete name : F:\Lunion Sacree_1989\Lunion Sacree_1989.HDTVRip.avi
Format : AVI
Format/Info : Audio Video Interleave
File size : 1.44 GiB
Duration : 1h 56mn
Overall bit rate : 1 765 Kbps
Writing application : VirtualDubMod 1.5.10.3 | www.virtualdub-fr.org || (build 2550/release)
Writing library : VirtualDubMod build 2550/release
Video
ID : 0
Format : MPEG-4 Visual
Format profile : Advanced Simple@L5
Format settings, BVOP : 1
Format settings, QPel : No
Format settings, GMC : No warppoints
Format settings, Matrix : Default (MPEG)
Codec ID : XVID
Codec ID/Hint : XviD
Duration : 1h 56mn
Bit rate : 1 564 Kbps
Width : 720 pixels
Height : 304 pixels
Display aspect ratio : 2.35:1
Frame rate : 25.000 fps
Color space : YUV
Chroma subsampling : 4:2:0
Bit depth : 8 bits
Scan type : Progressive
Compression mode : Lossy
Bits/(Pixel*Frame) : 0.286
Stream size : 1.28 GiB (89%)
Writing library : XviD 73
Audio
ID : 1
Format : AC-3
Format/Info : Audio Coding 3
Mode extension : CM (complete main)
Format settings, Endianness : Big
Codec ID : 2000
Duration : 1h 56mn
Bit rate mode : Constant
Bit rate : 192 Kbps
Channel(s) : 2 channels
Channel positions : Front: L R
Sampling rate : 48.0 KHz
Compression mode : Lossy
Stream size : 161 MiB (11%)
Alignment : Split accross interleaves
Interleave, duration : 40 ms (1.00 video frame)
Interleave, preload duratio : 500 ms

Скриншоты

Фрагмент субтитров

364
00:35:49,514 --> 00:35:52,187
Да, минутку...
365
00:35:52,314 --> 00:35:55,192
Может, там?
366
00:36:03,196 --> 00:36:05,790
Красиво, это начало 19 века?
367
00:36:07,996 --> 00:36:10,873
Я представляла вас другим.
368
00:36:10,915 --> 00:36:12,906
Каким?
369
00:36:12,955 --> 00:36:16,187
Ну... Более зрелым... более уверенным в себе.
370
00:36:16,236 --> 00:36:18,352
в темном костюме с галстуком.
371
00:36:18,396 --> 00:36:20,114
Костюм и галстук - это не проблема.
372
00:36:20,156 --> 00:36:22,829
Насчет "более зрелого" - надо чуть-чуть подождать.
373
00:36:22,876 --> 00:36:26,347
Постойте... Так вы не мсье Раджани,
атташе по культуре из посольства?
374
00:36:26,397 --> 00:36:30,596
Нет. Я Карим Амида, я работаю с вашим мужем.
375
00:36:30,638 --> 00:36:32,196
Моим бывшим мужем.
376
00:36:32,958 --> 00:36:34,869
Я пришел за...
377
00:36:35,518 --> 00:36:39,955
Жереми, возьми вещи, папа ждет тебя внизу.
378
00:36:39,998 --> 00:36:43,274
Он весь в отца.
379
00:36:49,440 --> 00:36:51,954
Поклянись мне, что не будешь повторять
никаких алжирских ругательств!
380
00:36:52,000 --> 00:36:54,878
Клянусь!
381
00:36:56,360 --> 00:37:00,434
- Я тоже представлял вас не такой.
- А какой?
382
00:37:00,481 --> 00:37:03,951
В строгом платье, несносной, с жутким перманентом,
383
00:37:04,001 --> 00:37:08,119
этакой женой полицейского.
384
00:37:09,521 --> 00:37:11,477
До свидания!
385
00:37:21,683 --> 00:37:23,560
И каким же ругательствам учит тебя отец?
386
00:37:23,603 --> 00:37:27,039
"Сукин сын! Имел я твоих предков! Чертово отродье!"
387
00:37:27,083 --> 00:37:29,279
Жереми, подожди!
388
00:37:30,564 --> 00:37:35,193
Это вам, я буду рада вас видеть
на вернисаже, через 3 дня.
389
00:37:36,443 --> 00:37:38,399
Спасибо.
390
00:37:40,163 --> 00:37:42,632
Будь умницей, малыш.
391
00:37:54,485 --> 00:37:57,079
- А здесь что мы делаем?
- Две минуты!
392
00:37:57,125 --> 00:37:59,799
Оставлю сына у матери и мы поедем.

To download the content you need:
1. Download and install torrent client [for Windows] or for mobile system
2. Click on [Download]
Attention.
If the test YOU are NOT a ROBOT - does not work, then You are using an outdated browser.
Install the current browser and click on [Download]

Do not work with Yandex browser. Uploading files to them is erroneous.
Security: torrent client is allowed by Kaspersky.

[en.asmlocator.ru].t4405.torrent 
Torrent: Registered [ 2015-12-01 13:55 ] · 3A237914080E7ECCAA2FD7E8431B0DEB412618D4

Download .torrent

Download

15 KB

Status: checked
Completed: 0 times
Size: 1.44 GB
terms.php
[Profile] [PM]
Display posts:    
Reply to topic

Current time is: 05-Apr 04:45

All times are UTC ± 0



You cannot post new topics in this forum
You cannot reply to topics in this forum
You cannot edit your posts in this forum
You cannot delete your posts in this forum
You cannot vote in polls in this forum
You cannot attach files in this forum
You can download files in this forum
Верим фактам, а не вранью Путина! Факт, что Правительство ведёт Россию к истреблению.
Так как численность населения падает, даже не смотря на приток эмигрантов!
Русская нация вымирает и вырождается, смешиваясь с эмигрантами!
Факт, что военных и граждан предприятий заставляют голосовать за партию Единая Россия и Путина
ПОД СТРАХОМ УВОЛЬНЕНИЯ!
Нам не нужно Правительство, блокирующее личную жизнь, интернет, нарушающее сохранность данных.
Все эти действия финансируются за счёт народа!