Влюблённые / Falling in Love (Улу Гросбард / Ulu Grosbard) [1984, США, драма, мелодрама, WEB-DLRip] MVO (ОРТ)

Reply to topic
DL-List and Torrent activity
Size:  1.42 GB   |    Registered:  4 years 4 months   |    Completed:  0 times

Seeder not seen: Never

 
   
 
 
Author Message

star21 ®

Gender: Female

Longevity: 4 years 4 months

Posts: 551945

Location: Екатеринбург

Post 01-Dec-2015 13:56

[Quote]

Влюблённые / Falling in Love
Год выпуска: 1984
Страна: США
Жанр: драма, мелодрама
Продолжительность: 01:46:24
Перевод: Профессиональный (многоголосый закадровый) - ОРТ
Cубтитры: нет
Режиссер: Улу Гросбард / Ulu Grosbard
В ролях: Роберт де Ниро (Frank Raftis), Мэрил Стрип (Molly Gilmore), Харви Кейтель (Ed Lasky), Джейн Качмарек (Ann Raftis), Джордж Мартин (John Trainer), Дэвид Кленнон (Brian Gilmore), Дайэнн Уист (Isabelle), Виктор Арго (Victor Rawlins), Уайли Эрл (Mike Raftis), Джесси Брэдфорд (Joe Raftis)-Мировая премьера: 21 ноября 1984-Описание: Встретившись в толчее книжного магазина в канун Рождества, они попросту сталкиваются друг с другом, собирают рассыпавшиеся по полу покупки и расходятся каждый своим путем. Но судьба сталкивает их снова и снова. С таких встреч и начинается эта история.-Исходник видео: от .-Благодарности:
- собственная запись перевода с телеканала ОРТ в начале 2000-х годов через видеомагнитофон и оцифровка с видеокассеты.
- синхронизация перевода.-Данный перевод на трекере появляется впервые.
На русский язык фильм озвучен кинокомпанией Селена Интернешнл по заказу Общественного Российского Телевидения.
Текст читают Александр Клюквин, Игорь Тарадайкин, Наталья Гурзо и Анна Каменкова.-Рейтинг

MPAA: PG-13 - Детям до 13 лет просмотр не желателен-Качество видео: WEB-DLRip
Формат видео: AVI -> //СЭМПЛ//
Видео: XviD, 720x400 (16:9), 23.976 fps, 1710 kbps avg
Аудио:
1 - 48 khz, AC3 Dolby Digital, 2/0 (L,R) ch, ~192 kbps [ОРТ / Первый Канал] VHSRip

MediaInfo

General
Complete name : E:\Торрент Файлы\Будущие Релизы на Трекере\1.35 - 1.46 и более гб\Влюблённые (ОРТ).avi
Format : AVI
Format/Info : Audio Video Interleave
File size : 1.42 GiB
Duration : 1h 46mn
Overall bit rate : 1 912 Kbps
Writing application : VirtualDubMod 1.5.10.3 | www.virtualdub-fr.org || (build 2550/release)
Writing library : VirtualDubMod build 2550/release
Video
ID : 0
Format : MPEG-4 Visual
Format profile : Advanced Simple@L5
Format settings, BVOP : 1
Format settings, QPel : Yes
Format settings, GMC : No warppoints
Format settings, Matrix : Custom
Codec ID : XVID
Codec ID/Hint : XviD
Duration : 1h 46mn
Bit rate : 1 710 Kbps
Width : 720 pixels
Height : 400 pixels
Display aspect ratio : 16:9
Frame rate : 23.976 fps
Color space : YUV
Chroma subsampling : 4:2:0
Bit depth : 8 bits
Scan type : Progressive
Compression mode : Lossy
Bits/(Pixel*Frame) : 0.248
Stream size : 1.27 GiB (89%)
Writing library : XviD 1.2.1 (UTC 2008-12-04)
Audio
ID : 1
Format : AC-3
Format/Info : Audio Coding 3
Mode extension : CM (complete main)
Format settings, Endianness : Big
Codec ID : 2000
Duration : 1h 46mn
Bit rate mode : Constant
Bit rate : 192 Kbps
Channel(s) : 2 channels
Channel positions : Front: L R
Sampling rate : 48.0 KHz
Compression mode : Lossy
Stream size : 146 MiB (10%)
Alignment : Split accross interleaves
Interleave, duration : 42 ms (1.00 video frame)
Interleave, preload duratio : 500 ms

Скриншот c названием фильма

Скриншоты

To download the content you need:
1. Download and install torrent client [for Windows] or for mobile system
2. Click on [Download]
Attention.
If the test YOU are NOT a ROBOT - does not work, then You are using an outdated browser.
Install the current browser and click on [Download]

Do not work with Yandex browser. Uploading files to them is erroneous.
Security: torrent client is allowed by Kaspersky.

[en.asmlocator.ru].t4403.torrent 
Torrent: Registered [ 2015-12-01 13:55 ] · 972AD18D1A56F56B4BE2B3B95A883B5E539A6C63

Download .torrent

Download

15 KB

Status: checked
Completed: 0 times
Size: 1.42 GB
terms.php
[Profile] [PM]
Display posts:    
Reply to topic

Current time is: 04-Apr 14:28

All times are UTC ± 0



You cannot post new topics in this forum
You cannot reply to topics in this forum
You cannot edit your posts in this forum
You cannot delete your posts in this forum
You cannot vote in polls in this forum
You cannot attach files in this forum
You can download files in this forum
Верим фактам, а не вранью Путина! Факт, что Правительство ведёт Россию к истреблению.
Так как численность населения падает, даже не смотря на приток эмигрантов!
Русская нация вымирает и вырождается, смешиваясь с эмигрантами!
Факт, что военных и граждан предприятий заставляют голосовать за партию Единая Россия и Путина
ПОД СТРАХОМ УВОЛЬНЕНИЯ!
Нам не нужно Правительство, блокирующее личную жизнь, интернет, нарушающее сохранность данных.
Все эти действия финансируются за счёт народа!